ZZ Top • Stagecoach • California's Country Music Festival [2015, Rock, Hard Rock, Blues Rock, HDTV 1080i]

 
Автор Сообщение

sergej644 ®

Пол:

Стаж: 4 года 11 месяцев

Сообщений: 6043

Откуда: Soviet Union



Награды: Нет

Торрент-статистика

Создавать темы 21-Май-2015 14:45

[Цитировать]

ZZ Top

California's Country Music Festival

Жанр: Rock, Hard Rock, Blues Rock
Продолжительность: 01:15:39
Год выпуска: April 25, 2015 - Day 2
Качество: HDTV 1080i
Контейнер: TS
Видео кодек: MPEG2
Аудио кодек: AC3
Видео: MPEG2 Video 1920x1080 29.97fps 15.4 Mbps
Аудио: Dolby AC3 48000Hz 6ch 384kbps

Треклист

Got Me Under Pressure
Waitin' for the Bus
Jesus Just Left Chicago
Gimme All Your Lovin'
I'm Bad, I'm Nationwide
Pincushion
I Gotsta Get Paid
Flyin' High
Foxy Lady (The Jimi Hendrix Experience cover)
Catfish Blues (Muddy Waters cover)
My Head's in Mississippi
Cheap Sunglasses
Chartreuse
Sharp Dressed Man
Legs
Encore:
La Grange / Sloppy Drunk Jam
Tush

Отчёт MediaInfo / BDInfo

General
ID                             : 1 (0x1)
Complete name                  : L:\ZZ Top - Stagecoach - California's Country Music Festival 2015.ts
Format                         : MPEG-TS
File size                      : 8.76 GiB
Duration                       : 1h 15mn
Overall bit rate mode          : Variable
Overall bit rate               : 16.6 Mbps
Video
ID                             : 6081 (0x17C1)
Menu ID                        : 1 (0x1)
Format                         : MPEG Video
Format version                 : Version 2
Format profile                 : Main@High
Format settings, BVOP          : Yes
Format settings, Matrix        : Default
Format settings, GOP           : Variable
Format settings, picture struc : Frame
Codec ID                       : 2
Duration                       : 1h 15mn
Bit rate mode                  : Variable
Bit rate                       : 15.4 Mbps
Maximum bit rate               : 18.0 Mbps
Width                          : 1 920 pixels
Height                         : 1 080 pixels
Display aspect ratio           : 16:9
Frame rate                     : 29.970 fps
Color space                    : YUV
Chroma subsampling             : 4:2:0
Bit depth                      : 8 bits
Scan type                      : Interlaced
Scan order                     : Top Field First
Compression mode               : Lossy
Bits/(Pixel*Frame)             : 0.247
Time code of first frame       : 00:00:00;00
Time code source               : Group of pictures header
Stream size                    : 8.12 GiB (93%)
Audio
ID                             : 6082 (0x17C2)
Menu ID                        : 1 (0x1)
Format                         : AC-3
Format/Info                    : Audio Coding 3
Mode extension                 : CM (complete main)
Format settings, Endianness    : Big
Codec ID                       : 129
Duration                       : 1h 15mn
Bit rate mode                  : Constant
Bit rate                       : 384 Kbps
Channel(s)                     : 6 channels
Channel positions              : Front: L C R, Side: L R, LFE
Sampling rate                  : 48.0 KHz
Bit depth                      : 16 bits
Compression mode               : Lossy
Delay relative to video        : 9ms
Stream size                    : 208 MiB (2%)
Language                       : English
[Профиль] [ЛС]
Кто просматривает тему:

Показать сообщения:    

Текущее время: Сегодня 16:42

Часовой пояс: GMT



Вы не можете начинать темы
Вы не можете отвечать на сообщения
Вы не можете редактировать свои сообщения
Вы не можете удалять свои сообщения
Вы не можете голосовать в опросах
Вы не можете прикреплять файлы к сообщениям
Вы не можете скачивать файлы