ZZ Top - Live At Montreux 2013 [2014, Hard Rock, Blues Rock, Blu-ray]

 
Автор Сообщение

reversefile ®

Пол:

Стаж: 4 года 5 месяцев

Сообщений: 842

Откуда: ReverseFile.org



Награды: Нет

Торрент-статистика

Создавать темы 11-Авг-2014 18:53

[Цитировать]

Live At Montreux-- -Жанр: Hard Rock, Blues Rock
Продолжительность: 01:32:30
Год выпуска: 2014-Описание: Texan blues-rockers ZZ Top have announced the July 22 release of ‘Live At Montreux 2013′ on DVD, Blu-ray and digital formats. It will be the group’s first home video release since 2008′s ‘Live From Texas’ DVD. Aside from the expected hits including ‘Gimme All Your Lovin’,’ ‘Legs,’ ‘La Grange,’ and ‘Tush,’ a pair of tracks — ‘I Gotsta Get Paid’ and ‘Chartreuse’ — from the group’s acclaimed 2012 album ‘La Futura‘ are also included. ZZ Top’s 2013 performance at Montreux was notable as it was the first time that the core trio of vocalist-guitarist Billy Gibbons, bassist Dusty Hill and drummer Frank Beard performed as a quintet. The group welcomed musical guests Mike Flanigin and Van Wilks on stage to help pay tribute to Montreux festival founder Claude Nobs, who had passed away in January 2013.-Треклист:
01. Got Me Under Pressure
02. Waitin’ For The Bus
03. Jesus Just Left Chicago
04. Gimme All Your Lovin’
05. Pincushion
06. I Gotsta Get Paid
07. Flyin’ High
08. Kiko
09. I Loved The Woman
10. Foxey Lady
11. My Head’s In Mississippi
12. Chartreuse
13. Sharp Dressed Man
14. Legs
15. Tube Snake Boogie
16. La Grang
17. Tush
Billy Gibbons & Dusty Hill Interview
Billy Gibbons On The Montreux Jazz Festival-Качество: Blu-ray
Контейнер: BDMV
Видео кодек: AVC
Аудио кодек: PCM / DTS
Видео: MPEG-4 AVC Video / 27189 kbps / 1080i / 29,970 fps / 16:9 / High Profile 4.1
Аудио #1: LPCM Audio / 2.0 ch / 96 kHz / 4608 kbps / 24-bit
Аудио #2: DTS-HD Master Audio / 5.1 ch / 96 kHz / 8389 kbps / 24-bit (DTS Core: 5.1 / 48 kHz / 1509 kbps / 24-bit)

BDInfo

Disc Title: Z Top - Live at MontreuxDisc Size: 29 034 548 824 bytesProtection: AACSBD-Java: NoBDInfo: 0.5.8
Notes:
BDINFO HOME: Cinema Squid http://www.cinemasquid.com/blu-ray/tools/bdinfo
INCLUDES FORUMS REPORT FOR: AVS Forum Blu-ray Audio and Video Specifications Thread http://www.avsforum.com/avs-vb/showthread.php?t=1155731
********************PLAYLIST: 00002.MPLS********************
Total   Video
Title                                                           Codec   Length  Movie Size      Disc Size       Bitrate Bitrate Main Audio Track                          Secondary Audio Track
-----                                                           ------  ------- --------------  --------------  ------- ------- ------------------                        ---------------------
00002.MPLS                                                      AVC     1:20:44 25 647 728 640  29 034 548 824  42,36   27,19   LPCM 2.0 4608Kbps (96kHz/24-bit)          DTS-HD Master 5.1 8389Kbps (96kHz/24-bit)
DISC INFO:
Disc Title:     Z Top -  Live at Montreux
Disc Size:      29 034 548 824 bytes
Protection:     AACS
BD-Java:        No
BDInfo:         0.5.8
PLAYLIST REPORT:
Name:                   00002.MPLS
Length:                 1:20:44.039 (h:m:s.ms)
Size:                   25 647 728 640 bytes
Total Bitrate:          42,36 Mbps
VIDEO:
Codec                   Bitrate             Description
-----                   -------             -----------
MPEG-4 AVC Video        27189 kbps          1080i / 29,970 fps / 16:9 / High Profile 4.1
AUDIO:
Codec                           Language        Bitrate         Description
-----                           --------        -------         -----------
LPCM Audio                      English         4608 kbps       2.0 / 96 kHz / 4608 kbps / 24-bit
DTS-HD Master Audio             English         8389 kbps       5.1 / 96 kHz / 8389 kbps / 24-bit (DTS Core: 5.1 / 48 kHz / 1509 kbps / 24-bit)
FILES:
Name            Time In         Length          Size            Total Bitrate
----            -------         ------          ----            -------------
00002.M2TS      0:00:00.000     1:20:44.039     25 647 728 640  42 358
CHAPTERS:
Number          Time In         Length          Avg Video Rate  Max 1-Sec Rate  Max 1-Sec Time  Max 5-Sec Rate  Max 5-Sec Time  Max 10Sec Rate  Max 10Sec Time  Avg Frame Size  Max Frame Size  Max Frame Time
------          -------         ------          --------------  --------------  --------------  --------------  --------------  --------------  --------------  --------------  --------------  --------------
1               0:00:00.000     0:05:08.074     24 940 kbps     43 017 kbps     00:01:39.466    35 229 kbps     00:04:35.441    33 506 kbps     00:04:32.272    104 007 bytes   443 840 bytes   00:04:40.413
2               0:05:08.074     0:02:54.407     28 717 kbps     42 128 kbps     00:07:59.011    34 329 kbps     00:07:50.770    32 458 kbps     00:07:50.102    119 775 bytes   456 500 bytes   00:07:59.979
3               0:08:02.482     0:04:30.870     28 049 kbps     38 567 kbps     00:11:10.336    34 555 kbps     00:08:38.417    31 430 kbps     00:11:52.812    116 986 bytes   392 280 bytes   00:09:12.585
4               0:12:33.352     0:04:28.301     29 313 kbps     41 072 kbps     00:16:40.165    33 673 kbps     00:13:22.635    32 244 kbps     00:13:32.912    122 258 bytes   468 703 bytes   00:13:24.270
5               0:17:01.653     0:04:33.172     29 645 kbps     40 673 kbps     00:17:38.490    37 301 kbps     00:17:07.993    34 888 kbps     00:17:03.055    123 646 bytes   421 164 bytes   00:17:02.287
6               0:21:34.826     0:03:50.129     27 900 kbps     41 771 kbps     00:23:36.047    35 665 kbps     00:23:13.792    32 251 kbps     00:23:10.589    116 367 bytes   481 713 bytes   00:23:14.659
7               0:25:24.956     0:05:50.183     29 426 kbps     39 690 kbps     00:28:41.119    36 045 kbps     00:30:20.819    34 349 kbps     00:30:20.051    122 730 bytes   541 483 bytes   00:30:20.852
8               0:31:15.139     0:04:23.329     21 500 kbps     38 325 kbps     00:32:40.491    35 234 kbps     00:32:30.648    30 712 kbps     00:35:17.415    89 673 bytes    454 020 bytes   00:32:40.658
9               0:35:38.469     0:06:17.076     21 848 kbps     41 139 kbps     00:41:29.854    36 064 kbps     00:37:02.386    33 461 kbps     00:37:01.719    91 123 bytes    514 771 bytes   00:37:04.155
10              0:41:55.546     0:03:35.715     25 873 kbps     40 122 kbps     00:42:49.233    32 939 kbps     00:45:02.132    32 383 kbps     00:42:14.031    107 911 bytes   412 064 bytes   00:45:07.104
11              0:45:31.261     0:04:31.437     28 989 kbps     40 265 kbps     00:48:24.434    36 108 kbps     00:46:55.479    34 069 kbps     00:46:37.494    120 910 bytes   491 044 bytes   00:46:46.870
12              0:50:02.699     0:03:07.153     28 182 kbps     41 967 kbps     00:50:40.070    33 976 kbps     00:50:36.700    30 829 kbps     00:52:04.688    117 541 bytes   477 901 bytes   00:50:14.678
13              0:53:09.853     0:04:46.686     29 518 kbps     39 852 kbps     00:54:27.230    35 153 kbps     00:57:46.262    34 601 kbps     00:57:43.593    123 114 bytes   538 158 bytes   00:53:55.765
14              0:57:56.539     0:06:28.755     26 649 kbps     39 657 kbps     00:58:13.289    35 389 kbps     01:00:33.529    34 482 kbps     01:00:32.228    111 150 bytes   493 610 bytes   00:58:14.257
15              1:04:25.294     0:03:31.177     29 818 kbps     39 593 kbps     01:06:20.076    35 129 kbps     01:06:19.308    32 782 kbps     01:06:19.308    124 368 bytes   412 235 bytes   01:04:26.095
16              1:07:56.472     0:07:53.506     29 891 kbps     39 207 kbps     01:08:40.716    34 924 kbps     01:08:39.949    33 366 kbps     01:08:38.247    124 671 bytes   472 498 bytes   01:14:18.420
17              1:15:49.978     0:04:54.060     23 220 kbps     41 380 kbps     01:17:12.794    34 182 kbps     01:19:30.232    32 627 kbps     01:19:03.505    96 859 bytes    489 502 bytes   01:17:31.279
STREAM DIAGNOSTICS:
File            PID             Type            Codec           Language                Seconds                 Bitrate                 Bytes           Packets
----            ---             ----            -----           --------                --------------          --------------          -------------   -----
00002.M2TS      4113 (0x1011)   0x1B            AVC                                     4843,939                27 189                  16 462 827 189  89 557 012
00002.M2TS      4352 (0x1100)   0x80            LPCM            eng (English)           4843,939                4 615                   2 794 045 156   15 500 944
00002.M2TS      4353 (0x1101)   0x86            DTS-HD MA       eng (English)           4843,939                8 389                   5 079 594 756   28 361 668
QUICK SUMMARY:
Disc Title: Z Top - Live at MontreuxDisc Size: 29 034 548 824 bytesProtection: AACSBD-Java: NoPlaylist: 00002.MPLSSize: 25 647 728 640 bytesLength: 1:20:44.039Total Bitrate: 42,36 MbpsVideo: MPEG-4 AVC Video / 27189 kbps / 1080i / 29,970 fps / 16:9 / High Profile 4.1Audio: English / LPCM Audio / 2.0 / 96 kHz / 4608 kbps / 24-bitAudio: English / DTS-HD Master Audio / 5.1 / 96 kHz / 8389 kbps / 24-bit (DTS Core: 5.1 / 48 kHz / 1509 kbps / 24-bit)
********************PLAYLIST: 00006.MPLS********************
Total   Video
Title                                                           Codec   Length  Movie Size      Disc Size       Bitrate Bitrate Main Audio Track                          Secondary Audio Track
-----                                                           ------  ------- --------------  --------------  ------- ------- ------------------                        ---------------------
00006.MPLS                                                      AVC     0:06:00 1 473 466 368   29 034 548 824  32,74   29,39   LPCM 2.0 1536Kbps (48kHz/16-bit)
DISC INFO:
Disc Title:     Z Top -  Live at Montreux
Disc Size:      29 034 548 824 bytes
Protection:     AACS
BD-Java:        No
BDInfo:         0.5.8
PLAYLIST REPORT:
Name:                   00006.MPLS
Length:                 0:06:00.026 (h:m:s.ms)
Size:                   1 473 466 368 bytes
Total Bitrate:          32,74 Mbps
VIDEO:
Codec                   Bitrate             Description
-----                   -------             -----------
MPEG-4 AVC Video        29390 kbps          1080i / 29,970 fps / 16:9 / High Profile 4.1
AUDIO:
Codec                           Language        Bitrate         Description
-----                           --------        -------         -----------
LPCM Audio                      English         1536 kbps       2.0 / 48 kHz / 1536 kbps / 16-bit
SUBTITLES:
Codec                           Language        Bitrate         Description
-----                           --------        -------         -----------
Presentation Graphics           English         34,230 kbps
Presentation Graphics           German          36,227 kbps
Presentation Graphics           Spanish         33,917 kbps
Presentation Graphics           French          32,938 kbps
FILES:
Name            Time In         Length          Size            Total Bitrate
----            -------         ------          ----            -------------
00010.M2TS      0:00:00.000     0:06:00.026     1 473 466 368   32 741
CHAPTERS:
Number          Time In         Length          Avg Video Rate  Max 1-Sec Rate  Max 1-Sec Time  Max 5-Sec Rate  Max 5-Sec Time  Max 10Sec Rate  Max 10Sec Time  Avg Frame Size  Max Frame Size  Max Frame Time
------          -------         ------          --------------  --------------  --------------  --------------  --------------  --------------  --------------  --------------  --------------  --------------
1               0:00:00.000     0:06:00.026     29 390 kbps     39 334 kbps     00:05:39.405    36 924 kbps     00:05:37.837    36 535 kbps     00:05:37.503    122 579 bytes   483 312 bytes   00:05:37.870
STREAM DIAGNOSTICS:
File            PID             Type            Codec           Language                Seconds                 Bitrate                 Bytes           Packets
----            ---             ----            -----           --------                --------------          --------------          -------------   -----
00010.M2TS      4113 (0x1011)   0x1B            AVC                                     359,893                 29 401                  1 322 630 438   7 194 513
00010.M2TS      4352 (0x1100)   0x80            LPCM            eng (English)           359,893                 1 543                   69 413 784      432 036
00010.M2TS      4608 (0x1200)   0x90            PGS             eng (English)           359,893                 34                      1 540 455       8 888
00010.M2TS      4609 (0x1201)   0x90            PGS             deu (German)            359,893                 36                      1 630 312       9 382
00010.M2TS      4610 (0x1202)   0x90            PGS             spa (Spanish)           359,893                 34                      1 526 372       8 822
00010.M2TS      4611 (0x1203)   0x90            PGS             fra (French)            359,893                 33                      1 482 318       8 577
QUICK SUMMARY:
Disc Title: Z Top - Live at MontreuxDisc Size: 29 034 548 824 bytesProtection: AACSBD-Java: NoPlaylist: 00006.MPLSSize: 1 473 466 368 bytesLength: 0:06:00.026Total Bitrate: 32,74 MbpsVideo: MPEG-4 AVC Video / 29390 kbps / 1080i / 29,970 fps / 16:9 / High Profile 4.1Audio: English / LPCM Audio / 2.0 / 48 kHz / 1536 kbps / 16-bitSubtitle: English / 34,230 kbpsSubtitle: German / 36,227 kbpsSubtitle: Spanish / 33,917 kbpsSubtitle: French / 32,938 kbps
********************PLAYLIST: 00007.MPLS********************
Total   Video
Title                                                           Codec   Length  Movie Size      Disc Size       Bitrate Bitrate Main Audio Track                          Secondary Audio Track
-----                                                           ------  ------- --------------  --------------  ------- ------- ------------------                        ---------------------
00007.MPLS                                                      AVC     0:05:46 1 481 361 408   29 034 548 824  34,25   30,80   LPCM 2.0 1536Kbps (48kHz/16-bit)
DISC INFO:
Disc Title:     Z Top -  Live at Montreux
Disc Size:      29 034 548 824 bytes
Protection:     AACS
BD-Java:        No
BDInfo:         0.5.8
PLAYLIST REPORT:
Name:                   00007.MPLS
Length:                 0:05:46.012 (h:m:s.ms)
Size:                   1 481 361 408 bytes
Total Bitrate:          34,25 Mbps
VIDEO:
Codec                   Bitrate             Description
-----                   -------             -----------
MPEG-4 AVC Video        30795 kbps          1080i / 29,970 fps / 16:9 / High Profile 4.1
AUDIO:
Codec                           Language        Bitrate         Description
-----                           --------        -------         -----------
LPCM Audio                      English         1536 kbps       2.0 / 48 kHz / 1536 kbps / 16-bit
SUBTITLES:
Codec                           Language        Bitrate         Description
-----                           --------        -------         -----------
Presentation Graphics           English         44,900 kbps
Presentation Graphics           German          47,512 kbps
Presentation Graphics           Spanish         42,190 kbps
Presentation Graphics           French          41,197 kbps
FILES:
Name            Time In         Length          Size            Total Bitrate
----            -------         ------          ----            -------------
00007.M2TS      0:00:00.000     0:05:46.012     1 481 361 408   34 250
CHAPTERS:
Number          Time In         Length          Avg Video Rate  Max 1-Sec Rate  Max 1-Sec Time  Max 5-Sec Rate  Max 5-Sec Time  Max 10Sec Rate  Max 10Sec Time  Avg Frame Size  Max Frame Size  Max Frame Time
------          -------         ------          --------------  --------------  --------------  --------------  --------------  --------------  --------------  --------------  --------------  --------------
1               0:00:00.000     0:05:46.012     30 795 kbps     37 859 kbps     00:00:45.812    35 514 kbps     00:00:14.214    35 115 kbps     00:00:09.642    128 443 bytes   498 466 bytes   00:01:21.247
STREAM DIAGNOSTICS:
File            PID             Type            Codec           Language                Seconds                 Bitrate                 Bytes           Packets
----            ---             ----            -----           --------                --------------          --------------          -------------   -----
00007.M2TS      4113 (0x1011)   0x1B            AVC                                     345,912                 30 804                  1 331 952 291   7 244 891
00007.M2TS      4352 (0x1100)   0x80            LPCM            eng (English)           345,912                 1 543                   66 711 692      415 218
00007.M2TS      4608 (0x1200)   0x90            PGS             eng (English)           345,912                 45                      1 942 001       11 142
00007.M2TS      4609 (0x1201)   0x90            PGS             deu (German)            345,912                 48                      2 054 982       11 762
00007.M2TS      4610 (0x1202)   0x90            PGS             spa (Spanish)           345,912                 42                      1 824 763       10 508
00007.M2TS      4611 (0x1203)   0x90            PGS             fra (French)            345,912                 41                      1 781 833       10 280
QUICK SUMMARY:
Disc Title: Z Top - Live at MontreuxDisc Size: 29 034 548 824 bytesProtection: AACSBD-Java: NoPlaylist: 00007.MPLSSize: 1 481 361 408 bytesLength: 0:05:46.012Total Bitrate: 34,25 MbpsVideo: MPEG-4 AVC Video / 30795 kbps / 1080i / 29,970 fps / 16:9 / High Profile 4.1Audio: English / LPCM Audio / 2.0 / 48 kHz / 1536 kbps / 16-bitSubtitle: English / 44,900 kbpsSubtitle: German / 47,512 kbpsSubtitle: Spanish / 42,190 kbpsSubtitle: French / 41,197 kbps
********************PLAYLIST: 00004.MPLS********************
Total   Video
Title                                                           Codec   Length  Movie Size      Disc Size       Bitrate Bitrate Main Audio Track                          Secondary Audio Track
-----                                                           ------  ------- --------------  --------------  ------- ------- ------------------                        ---------------------
00004.MPLS                                                      AVC     0:00:21 9 443 328       29 034 548 824  3,59    3,33
DISC INFO:
Disc Title:     Z Top -  Live at Montreux
Disc Size:      29 034 548 824 bytes
Protection:     AACS
BD-Java:        No
BDInfo:         0.5.8
PLAYLIST REPORT:
Name:                   00004.MPLS
Length:                 0:00:21.020 (h:m:s.ms)
Size:                   9 443 328 bytes
Total Bitrate:          3,59 Mbps
VIDEO:
Codec                   Bitrate             Description
-----                   -------             -----------
MPEG-4 AVC Video        3327 kbps           1080i / 29,970 fps / 16:9 / High Profile 4.1
FILES:
Name            Time In         Length          Size            Total Bitrate
----            -------         ------          ----            -------------
00005.M2TS      0:00:00.000     0:00:10.510     4 841 472       3 685
00006.M2TS      0:00:10.510     0:00:10.510     4 601 856       3 503
CHAPTERS:
Number          Time In         Length          Avg Video Rate  Max 1-Sec Rate  Max 1-Sec Time  Max 5-Sec Rate  Max 5-Sec Time  Max 10Sec Rate  Max 10Sec Time  Avg Frame Size  Max Frame Size  Max Frame Time
------          -------         ------          --------------  --------------  --------------  --------------  --------------  --------------  --------------  --------------  --------------  --------------
1               0:00:00.000     0:00:21.020     3 327 kbps      6 302 kbps      00:00:09.509    3 947 kbps      00:00:06.840    3 597 kbps      00:00:01.701    13 875 bytes    200 073 bytes   00:00:18.918
STREAM DIAGNOSTICS:
File            PID             Type            Codec           Language                Seconds                 Bitrate                 Bytes           Packets
----            ---             ----            -----           --------                --------------          --------------          -------------   -----
00005.M2TS      4113 (0x1011)   0x1B            AVC                                     10,410                  3 448                   4 486 469       24 858
00006.M2TS      4113 (0x1011)   0x1B            AVC                                     10,410                  3 270                   4 254 964       23 596
QUICK SUMMARY:
Disc Title: Z Top - Live at MontreuxDisc Size: 29 034 548 824 bytesProtection: AACSBD-Java: NoPlaylist: 00004.MPLSSize: 9 443 328 bytesLength: 0:00:21.020Total Bitrate: 3,59 MbpsVideo: MPEG-4 AVC Video / 3327 kbps / 1080i / 29,970 fps / 16:9 / High Profile 4.1
********************PLAYLIST: 00003.MPLS********************
Total   Video
Title                                                           Codec   Length  Movie Size      Disc Size       Bitrate Bitrate Main Audio Track                          Secondary Audio Track
-----                                                           ------  ------- --------------  --------------  ------- ------- ------------------                        ---------------------
00003.MPLS                                                      AVC     0:00:20 45 864 960      29 034 548 824  18,30   15,21   DTS-HD Master 5.1 1960Kbps (48kHz/16-bit)
DISC INFO:
Disc Title:     Z Top -  Live at Montreux
Disc Size:      29 034 548 824 bytes
Protection:     AACS
BD-Java:        No
BDInfo:         0.5.8
PLAYLIST REPORT:
Name:                   00003.MPLS
Length:                 0:00:20.053 (h:m:s.ms)
Size:                   45 864 960 bytes
Total Bitrate:          18,30 Mbps
VIDEO:
Codec                   Bitrate             Description
-----                   -------             -----------
MPEG-4 AVC Video        15214 kbps          1080i / 29,970 fps / 16:9 / High Profile 4.1
AUDIO:
Codec                           Language        Bitrate         Description
-----                           --------        -------         -----------
DTS-HD Master Audio             English         1960 kbps       5.1 / 48 kHz / 1960 kbps / 16-bit (DTS Core: 5.1 / 48 kHz / 1509 kbps / 16-bit)
FILES:
Name            Time In         Length          Size            Total Bitrate
----            -------         ------          ----            -------------
00003.M2TS      0:00:00.000     0:00:20.053     45 864 960      18 297
CHAPTERS:
Number          Time In         Length          Avg Video Rate  Max 1-Sec Rate  Max 1-Sec Time  Max 5-Sec Rate  Max 5-Sec Time  Max 10Sec Rate  Max 10Sec Time  Avg Frame Size  Max Frame Size  Max Frame Time
------          -------         ------          --------------  --------------  --------------  --------------  --------------  --------------  --------------  --------------  --------------  --------------
1               0:00:00.000     0:00:20.053     15 214 kbps     32 421 kbps     00:00:08.141    27 674 kbps     00:00:04.771    24 839 kbps     00:00:03.436    63 455 bytes    324 912 bytes   00:00:08.308
STREAM DIAGNOSTICS:
File            PID             Type            Codec           Language                Seconds                 Bitrate                 Bytes           Packets
----            ---             ----            -----           --------                --------------          --------------          -------------   -----
00003.M2TS      4113 (0x1011)   0x1B            AVC                                     19,953                  15 290                  38 136 751      208 048
00003.M2TS      4352 (0x1100)   0x86            DTS-HD MA       eng (English)           19,953                  1 970                   4 912 908       30 109
QUICK SUMMARY:
Disc Title: Z Top - Live at MontreuxDisc Size: 29 034 548 824 bytesProtection: AACSBD-Java: NoPlaylist: 00003.MPLSSize: 45 864 960 bytesLength: 0:00:20.053Total Bitrate: 18,30 MbpsVideo: MPEG-4 AVC Video / 15214 kbps / 1080i / 29,970 fps / 16:9 / High Profile 4.1Audio: English / DTS-HD Master Audio / 5.1 / 48 kHz / 1960 kbps / 16-bit (DTS Core: 5.1 / 48 kHz / 1509 kbps / 16-bit)

Скриншоты


Cover

[Профиль] [ЛС]
Показать сообщения:    

Текущее время: Сегодня 09:58

Часовой пояс: GMT



Вы не можете начинать темы
Вы не можете отвечать на сообщения
Вы не можете редактировать свои сообщения
Вы не можете удалять свои сообщения
Вы не можете голосовать в опросах
Вы не можете прикреплять файлы к сообщениям
Вы не можете скачивать файлы