(Hard Rock, Blues Rock) Zodiac - Sonic Child (Limited Edition)(2CD) - 2014, [FLAC (image + .cue), lossless]

 
Автор Сообщение

sergej644 ®

Пол:

Стаж: 4 года 11 месяцев

Сообщений: 6045

Откуда: Soviet Union



Награды: Нет

Торрент-статистика

Создавать темы 03-Окт-2014 22:47

[Цитировать]

--Zodiac - Sonic Child (Limited Edition)(2CD)
Страна: Germany
Страна производитель диска: Germany
Год выпуска: 2014
Лейбл: Napalm Records Handels GmbH
Номер по каталогу: NPR 562 LTD
Жанр: Hard Rock,Blues Rock
Формат: FLAC
тип рипа: (Image + *cue)
Битрейт аудио: Lossless
Продолжительность: 01:32:07
Полиграфия: присутствует

CD 1 \ 01:00:58

01. Intro - Who I Am (03:30)
02. Swinging On The Run (06:15)
03. Sonic Chid (03:02)
04. Holding On (04:04)
05. Sad Song (03:48)
06. Out Of The City (04:53)
07. A Penny And A Dead Horse (07:11)
08. Good Times (04:23)
09. Rock Bottom Blues (09:15)
10. Just Music (06:12)
11. Not Fragile (04:40)
12. Shine On (03:41)

лог создания рипа

Exact Audio Copy V1.0 beta 3 from 29. August 2011
EAC extraction logfile from 30. September 2014, 16:33
Zodiac / Sonic Child (Limited Edition) CD 1
Used drive  : HP      DVD Writer 1170d   Adapter: 0  ID: 0
Read mode               : Secure
Utilize accurate stream : Yes
Defeat audio cache      : Yes
Make use of C2 pointers : No
Read offset correction                      : 6
Overread into Lead-In and Lead-Out          : No
Fill up missing offset samples with silence : Yes
Delete leading and trailing silent blocks   : No
Null samples used in CRC calculations       : Yes
Used interface                              : Native Win32 interface for Win NT & 2000
Used output format              : User Defined Encoder
Selected bitrate                : 768 kBit/s
Quality                         : High
Add ID3 tag                     : No
Command line compressor         : C:\Program Files (x86)\Exact Audio Copy\FLAC\FLAC.EXE
Additional command line options : -V -8 -T "Date=%year%" -T "Genre=%genre%" -T"COMMENT=Ripped by Ungern666" -8 -V %source%
TOC of the extracted CD
     Track |   Start  |  Length  | Start sector | End sector
    ---------------------------------------------------------
        1  |  0:00.00 |  3:30.36 |         0    |    15785
        2  |  3:30.36 |  6:15.30 |     15786    |    43940
        3  |  9:45.66 |  3:02.34 |     43941    |    57624
        4  | 12:48.25 |  4:04.13 |     57625    |    75937
        5  | 16:52.38 |  3:48.35 |     75938    |    93072
        6  | 20:40.73 |  4:53.00 |     93073    |   115047
        7  | 25:33.73 |  7:11.09 |    115048    |   147381
        8  | 32:45.07 |  4:23.13 |    147382    |   167119
        9  | 37:08.20 |  9:15.56 |    167120    |   208800
       10  | 46:24.01 |  6:12.56 |    208801    |   236756
       11  | 52:36.57 |  4:40.25 |    236757    |   257781
       12  | 57:17.07 |  3:41.19 |    257782    |   274375
Range status and errors
Selected range
     Filename C:\EAC\Ungern666\Zodiac - Sonic Child (Limited Edition) CD 1.wav
     Peak level 97.7 %
     Extraction speed 5.9 X
     Range quality 99.9 %
     Test CRC 5BDCB610
     Copy CRC 5BDCB610
     Copy OK
No errors occurred
AccurateRip summary
Track  1  not present in database
Track  2  not present in database
Track  3  not present in database
Track  4  not present in database
Track  5  not present in database
Track  6  not present in database
Track  7  not present in database
Track  8  not present in database
Track  9  not present in database
Track 10  not present in database
Track 11  not present in database
Track 12  not present in database
None of the tracks are present in the AccurateRip database
End of status report

содержание индексной карты *cue

REM DATE 2014
REM DISCID 9F0E4A0C
REM COMMENT "ExactAudioCopy v1.0b3"
PERFORMER "Zodiac"
TITLE "Sonic Child (Limited Edition) CD 1"
FILE "Zodiac - Sonic Child (Limited Edition) CD 1.flac" WAVE
  TRACK 01 AUDIO
    TITLE "Intro - Who I Am"
    PERFORMER "Zodiac"
    INDEX 01 00:00:00
  TRACK 02 AUDIO
    TITLE "Swinging On The Run"
    PERFORMER "Zodiac"
    INDEX 01 03:30:36
  TRACK 03 AUDIO
    TITLE "Sonic Chid"
    PERFORMER "Zodiac"
    INDEX 00 09:44:10
    INDEX 01 09:45:66
  TRACK 04 AUDIO
    TITLE "Holding On"
    PERFORMER "Zodiac"
    INDEX 00 12:46:44
    INDEX 01 12:48:25
  TRACK 05 AUDIO
    TITLE "Sad Song"
    PERFORMER "Zodiac"
    INDEX 00 16:50:57
    INDEX 01 16:52:38
  TRACK 06 AUDIO
    TITLE "Out Of The City"
    PERFORMER "Zodiac"
    INDEX 00 20:39:17
    INDEX 01 20:40:73
  TRACK 07 AUDIO
    TITLE "A Penny And A Dead Horse"
    PERFORMER "Zodiac"
    INDEX 00 25:32:17
    INDEX 01 25:33:73
  TRACK 08 AUDIO
    TITLE "Good Times"
    PERFORMER "Zodiac"
    INDEX 00 32:43:26
    INDEX 01 32:45:07
  TRACK 09 AUDIO
    TITLE "Rock Bottom Blues"
    PERFORMER "Zodiac"
    INDEX 01 37:08:20
  TRACK 10 AUDIO
    TITLE "Just Music"
    PERFORMER "Zodiac"
    INDEX 01 46:24:01
  TRACK 11 AUDIO
    TITLE "Not Fragile"
    PERFORMER "Zodiac"
    INDEX 00 52:35:01
    INDEX 01 52:36:57
  TRACK 12 AUDIO
    TITLE "Shine On"
    PERFORMER "Zodiac"
    INDEX 00 57:15:26
    INDEX 01 57:17:07

CD 2 | 00:31:09

01. Free (Live At Rock Hard Festival 2014) (06:55)
02. Cortez The Killer (Live At Rock Hard Festival 2014) (09:09)
03. Upon The Stone (From The Demo 2011) (07:12)
04. Failure (From The Demo 2011) (07:52)

лог создания рипа

Exact Audio Copy V1.0 beta 3 from 29. August 2011
EAC extraction logfile from 30. September 2014, 16:46
Zodiac / Sonic Child (Limited Edition) CD 2
Used drive  : HP      DVD Writer 1170d   Adapter: 0  ID: 0
Read mode               : Secure
Utilize accurate stream : Yes
Defeat audio cache      : Yes
Make use of C2 pointers : No
Read offset correction                      : 6
Overread into Lead-In and Lead-Out          : No
Fill up missing offset samples with silence : Yes
Delete leading and trailing silent blocks   : No
Null samples used in CRC calculations       : Yes
Used interface                              : Native Win32 interface for Win NT & 2000
Used output format              : User Defined Encoder
Selected bitrate                : 768 kBit/s
Quality                         : High
Add ID3 tag                     : No
Command line compressor         : C:\Program Files (x86)\Exact Audio Copy\FLAC\FLAC.EXE
Additional command line options : -V -8 -T "Date=%year%" -T "Genre=%genre%" -T"COMMENT=Ripped by Ungern666" -8 -V %source%
TOC of the extracted CD
     Track |   Start  |  Length  | Start sector | End sector
    ---------------------------------------------------------
        1  |  0:00.00 |  6:55.13 |         0    |    31137
        2  |  6:55.13 |  9:09.29 |     31138    |    72341
        3  | 16:04.42 |  7:12.32 |     72342    |   104773
        4  | 23:16.74 |  7:52.41 |    104774    |   140214
Range status and errors
Selected range
     Filename C:\EAC\Ungern666\Zodiac - Sonic Child (Limited Edition) CD 2.wav
     Peak level 98.7 %
     Extraction speed 6.3 X
     Range quality 100.0 %
     Test CRC 83A3478A
     Copy CRC 83A3478A
     Copy OK
No errors occurred
AccurateRip summary
Track  1  not present in database
Track  2  not present in database
Track  3  not present in database
Track  4  not present in database
None of the tracks are present in the AccurateRip database
End of status report

содержание индексной карты *cue

REM DATE 2014
REM DISCID 38074D04
REM COMMENT "ExactAudioCopy v1.0b3"
PERFORMER "Zodiac"
TITLE "Sonic Child (Limited Edition) CD 2"
FILE "Zodiac - Sonic Child (Limited Edition) CD 2.flac" WAVE
  TRACK 01 AUDIO
    TITLE "Free (Live At Rock Hard Festival 2014)"
    PERFORMER "Zodiac"
    INDEX 01 00:00:00
  TRACK 02 AUDIO
    TITLE "Cortez The Killer (Live At Rock Hard Festival 2014)"
    PERFORMER "Zodiac"
    INDEX 00 06:53:13
    INDEX 01 06:55:13
  TRACK 03 AUDIO
    TITLE "Upon The Stone (From The Demo 2011)"
    PERFORMER "Zodiac"
    INDEX 00 16:02:43
    INDEX 01 16:04:42
  TRACK 04 AUDIO
    TITLE "Failure (From The Demo 2011)"
    PERFORMER "Zodiac"
    INDEX 00 23:15:00
    INDEX 01 23:16:74
--
[Профиль] [ЛС]
Показать сообщения:    

Текущее время: Сегодня 11:48

Часовой пояс: GMT



Вы не можете начинать темы
Вы не можете отвечать на сообщения
Вы не можете редактировать свои сообщения
Вы не можете удалять свои сообщения
Вы не можете голосовать в опросах
Вы не можете прикреплять файлы к сообщениям
Вы не можете скачивать файлы