Zолушка (Сергей Иванов) [2012, Россия, мелодрама, комедия, BDRip 720p] Original Rus

 
Автор Сообщение

painkiller ®

Стаж: 2 года 3 месяца

Сообщений: 582



Награды: Нет

Торрент-статистика

Создавать темы 15-Авг-2014 01:13

[Цитировать]

Zолушка-- Год выпуска: 2012
Страна: Россия
Студия: Большая разница, Централ Партнершип, Первый канал
Жанр: мелодрама, комедия
Продолжительность: 01:27:40
Перевод: Оригинал
Cубтитры: нет
Оригинальная аудиодорожка: Русский--Режиссер: Сергей Иванов / Sergey Ivanov
В ролях: Кристина Асмус, Никита Ефремов, Артем Ткаченко, Нонна Гришаева, Маргарита Исайкова, Юрий Стоянов, Елизавета Боярская, Сергей Бурунов, Маргарита Бычкова, Виталий Гребенников
Описание: Героиня фильма, Маша Крапивина, - пока еще не красавица, и не то чтобы сказочная умница. Обычная девушка, рискнувшая, подобно тысячам ее сверстниц из самых разных уголков страны, покорить Москву, покинув свой родной провинциальный городок. Вечером учится, а с утра до вечера работает «на вредном производстве» - горничной в очень состоятельной семье. Крупу, конечно, не перебирает, но работы хватает: только успевай крутиться, чтобы угодить властной хозяйке и двум ее взбалмошным дочерям.
А Маша, между тем, как и миллионы других девчонок, по уши влюблена в известного певца Алексея Королевича. Она - его самая преданная фанатка, увы, без малейшего шанса на знакомство с предметом своих девичьих грёз. И надо же такому случиться - «знатное» семейство получает приглашение на бал, а точнее, закрытую вечеринку, где соберется вся культурная элита страны, а главное - там будет выступать ОН! И совершенно очевидно, что с этой минуты Маша готова на любые жертвы, чтобы тоже оказаться там. Но как? На помощь нашей Золушке, конечно же, приходит добрая фея в лице родной тетки Агнии, главного редактора издания «Желтый PRESS». Она готова добыть для «бедной родственницы» заветное приглашение, но с одним условием: Маша отправится на вечеринку с непростым и довольно пикантным журналистским заданием...
На этом совпадения с известной сказкой не заканчиваются: появится здесь и Король вполне олигархического типа, и Принц в окружении целой обоймы сегодняшних «звезд» шоу-бизнеса, и бой курантов, и даже «хрустальная туфелька», роль которой исполнит... Нет, пожалуй, пусть это пока останется тайной.
Зрителям же остается лишь с удовольствием следить за перипетиями этой старой, как мир, но ооочень современной истории и надеяться на счастливый финал, если, конечно, наша Золушка вовремя успеет разобраться, что настоящий «принц» - вовсе не тот, кого она себе нафантазировала.
--Доп. информация: Сохранены оригинальные чаптеры как на Blu-ray.


Релиз от: by HANSMER--Тип релиза: BDRip 720p [Рип от NiP!]
Формат: MKV
Видео: MPEG-4 AVC, 1280x690, at 25.000 fps, ~7497 kbps avg, High Profile 4.1
Аудио: AC3, 48 kHz, 3/2 (L,C,R,l,r) + LFE ch, ~640 kbps avg [Russian]

MediaInfo

Полное имя                               : Zolushka.2012.Blu-ray.720p.x264-NiP.mkv
Формат                                   : Matroska
Версия формата                           : Version 2
Размер файла                             : 4,98 Гбайт
Продолжительность                        : 1 ч. 27 м.
Общий поток                              : 8139 Кбит/сек
Дата кодирования                         : UTC 2012-04-11 07:04:40
Программа кодирования                    : mkvmerge v5.5.0 ('Healer') built on Apr  6 2012 21:43:24
Библиотека кодирования                   : libebml v1.2.3 + libmatroska v1.3.0
Видео
Идентификатор                            : 1
Формат                                   : AVC
Формат/Информация                        : Advanced Video Codec
Профиль формата                          : High@L4.1
Параметр CABAC формата                   : Да
Параметр ReFrames формата                : 9 кадров
Идентификатор кодека                     : V_MPEG4/ISO/AVC
Продолжительность                        : 1 ч. 27 м.
Битрейт                                  : 7500 Кбит/сек
Ширина                                   : 1280 пикселей
Высота                                   : 690 пикселей
Соотношение сторон                       : 1,855
Частота кадров                           : 25,000 кадров/сек
Цветовое пространство                    : YUV
Субдискретизация насыщенности            : 4:2:0
Битовая глубина                          : 8 бит
Тип развёртки                            : Прогрессивная
Бит/(Пиксели*Кадры)                      : 0.340
Размер потока                            : 4,49 Гбайт (90%)
Заголовок                                : Zolushka.2012.Blu-ray.720p.x264-NiP
Библиотека кодирования                   : x264 core 122 r2184 5c85e0a
Настройки программы                      : cabac=1 / ref=9 / deblock=1:-3:-3 / analyse=0x3:0x113 / me=tesa / subme=11 / psy=1 / psy_rd=0.95:0.00 / mixed_ref=1 / me_range=24 / chroma_me=1 / trellis=2 / 8x8dct=1 / cqm=0 / deadzone=21,11 / fast_pskip=0 / chroma_qp_offset=-2 / threads=12 / sliced_threads=0 / nr=0 / decimate=0 / interlaced=0 / bluray_compat=0 / constrained_intra=0 / bframes=7 / b_pyramid=2 / b_adapt=2 / b_bias=0 / direct=3 / weightb=1 / open_gop=0 / weightp=2 / keyint=250 / keyint_min=25 / scenecut=40 / intra_refresh=0 / rc_lookahead=60 / rc=2pass / mbtree=0 / bitrate=7500 / ratetol=1.0 / qcomp=0.70 / qpmin=0 / qpmax=69 / qpstep=4 / cplxblur=20.0 / qblur=0.5 / vbv_maxrate=50000 / vbv_bufsize=62500 / nal_hrd=none / ip_ratio=1.40 / pb_ratio=1.30 / aq=1:0.90
Язык                                     : Russian
Default                                  : Да
Forced                                   : Нет
Коэффициенты матрицы                     : BT.709-5, BT.1361, IEC 61966-2-4 709, SMPTE RP177
Аудио
Идентификатор                            : 2
Формат                                   : AC-3
Формат/Информация                        : Audio Coding 3
Расширение режима                        : CM (complete main)
Идентификатор кодека                     : A_AC3
Продолжительность                        : 1 ч. 27 м.
Вид битрейта                             : Постоянный
Битрейт                                  : 640 Кбит/сек
Каналы                                   : 6 каналов
Расположение каналов                     : Front: L C R, Side: L R, LFE
Частота                                  : 48,0 КГц
Битовая глубина                          : 16 бит
Метод сжатия                             : С потерями
Размер потока                            : 401 Мбайт (8%)
Язык                                     : Russian
Default                                  : Да
Forced                                   : Нет
Меню
00:00:00.000                             : ru:Глава 1
00:04:06.080                             : ru:Глава 2
00:14:49.440                             : ru:Глава 3
00:26:15.440                             : ru:Глава 4
00:37:19.920                             : ru:Глава 5
00:53:20.560                             : ru:Глава 6
01:05:11.880                             : ru:Глава 7
01:16:17.520                             : ru:Глава 8
01:24:51.640                             : ru:Глава 9

Скриншоты

Source.................vs.................Encode



[Профиль] [ЛС]
Кто просматривает тему:

Показать сообщения:    

Текущее время: Сегодня 20:03

Часовой пояс: GMT



Вы не можете начинать темы
Вы не можете отвечать на сообщения
Вы не можете редактировать свои сообщения
Вы не можете удалять свои сообщения
Вы не можете голосовать в опросах
Вы не можете прикреплять файлы к сообщениям
Вы не можете скачивать файлы