Zолушка (Сергей Иванов) [2012, Россия, мелодрама, комедия, BDRip 1080p] Original Rus

 
Автор Сообщение

painkiller ®

Стаж: 2 года 3 месяца

Сообщений: 582



Награды: Нет

Торрент-статистика

Создавать темы 14-Авг-2014 13:07

[Цитировать]

Zолушка
Страна: Россия
Студия: Централ Партнершип
Жанр: мелодрама, комедия
Год выпуска: 2012
Продолжительность: 01:27:40
Перевод: Не требуется
Cубтитры: нет
Оригинальная аудиодорожка: русский
Режиссер: Сергей Иванов
В ролях: Кристина Асмус, Никита Ефремов, Артем Ткаченко, Елизавета Боярская, Нонна Гришаева, Александр Цекало, Юрий Стоянов, Сергей Бурунов, Анна Шерлинг, Маргарита Бычкова
Описание: Героиня фильма, Маша Крапивина, — пока еще не красавица, и не то чтобы сказочная умница. Обычная девушка, рискнувшая, подобно тысячам ее сверстниц из самых разных уголков страны, покорить Москву, покинув свой родной провинциальный городок. Вечером учится, а с утра до вечера работает «на вредном производстве» — горничной в очень состоятельной семье. Крупу, конечно, не перебирает, но работы хватает: только успевай крутиться, чтобы угодить властной хозяйке и двум ее взбалмошным дочерям.

Тип релиза: BDRip 1080p
Контейнер: MKV
Видео: 13.7 Mbps, 1920*1040 (16:9), 25.000 fps, AVC
Аудио: Rus, 640 kbps, 48.0 KHz, 16 bits, 6 ch, AC3

MediaInfo

General
Unique ID : 218120814613262713045774941819555057137 (0xA4188A7436BC0A8EBEB3AB59EA608DF1)
Complete name : D:\ноут\Zolushka.2012..mkv
Format : Matroska
File size : 8.95 GiB
Duration : 1h 27mn
Overall bit rate : 14.6 Mbps
Movie name : Zolushka.2012.O.BDRip.
Encoded date : UTC 2012-04-12 02:12:32
Writing application : mkvmerge v5.3.0 ('I could have danced') built on Feb 9 2012 10:38:07
Writing library : libebml v1.2.3 + libmatroska v1.3.0
Video
ID : 1
Format : AVC
Format/Info : Advanced Video Codec
Format profile : High@L4.1
Format settings, CABAC : Yes
Format settings, ReFrames : 5 frames
Format settings, GOP : M=1, N=45
Codec ID : V_MPEG4/ISO/AVC
Duration : 1h 27mn
Bit rate : 13.7 Mbps
Width : 1 920 pixels
Height : 1 040 pixels
Display aspect ratio : 16:9
Frame rate : 25.000 fps
Color space : YUV
Chroma subsampling : 4:2:0
Bit depth : 8 bits
Scan type : Progressive
Bits/(Pixel*Frame) : 0.274
Stream size : 8.38 GiB (94%)
Title : Zolushka.2012.O.BDRip.1080p.Uniongang.tv
Writing library : x264 core 120 r2164+656 2ff844c
Encoding settings : cabac=1 / ref=5 / deblock=1:-3:-3 / analyse=0x3:0x113 / me=umh / subme=11 / psy=1 / fade_compensate=0.00 / psy_rd=1.10:0.00 / mixed_ref=1 / me_range=32 / chroma_me=1 / trellis=2 / 8x8dct=1 / cqm=0 / deadzone=21,11 / fast_pskip=1 / chroma_qp_offset=-2 / threads=6 / sliced_threads=0 / nr=0 / decimate=1 / interlaced=0 / bluray_compat=0 / constrained_intra=0 / fgo=0 / bframes=5 / b_pyramid=2 / b_adapt=2 / b_bias=0 / direct=3 / weightb=1 / open_gop=0 / weightp=2 / keyint=250 / keyint_min=24 / scenecut=40 / intra_refresh=0 / rc_lookahead=40 / rc=crf / mbtree=1 / crf=18.0 / qcomp=0.60 / qpmin=0 / qpmax=69 / qpstep=4 / ip_ratio=1.40 / aq=1:1.00
Language : Russian
Audio
ID : 2
Format : AC-3
Format/Info : Audio Coding 3
Mode extension : CM (complete main)
Codec ID : A_AC3
Duration : 1h 27mn
Bit rate mode : Constant
Bit rate : 640 Kbps
Channel(s) : 6 channels
Channel positions : Front: L C R, Side: L R, LFE
Sampling rate : 48.0 KHz
Bit depth : 16 bits
Compression mode : Lossy
Stream size : 401 MiB (4%)
Language : Russian
Menu
00:00:00.000 : ru:00:00:00.000
00:04:06.080 : ru:00:04:06.080
00:14:49.440 : ru:00:14:49.440
00:26:15.440 : ru:00:26:15.440
00:37:19.920 : ru:00:37:19.920
00:53:20.560 : ru:00:53:20.560
01:05:11.880 : ru:01:05:11.880
01:16:17.520 : ru:01:16:17.520
01:24:51.640 : ru:01:24:51.640
[Профиль] [ЛС]
Кто просматривает тему:

Показать сообщения:    

Текущее время: Сегодня 14:53

Часовой пояс: GMT



Вы не можете начинать темы
Вы не можете отвечать на сообщения
Вы не можете редактировать свои сообщения
Вы не можете удалять свои сообщения
Вы не можете голосовать в опросах
Вы не можете прикреплять файлы к сообщениям
Вы не можете скачивать файлы