( Neoclassical Metal, Instrumental Rock, Heavy Metal, Hard Rock) Yngwie Malmsteen - Now Your Ships Are Burned (The Polydor Years 1984-1990)(4CD) - 2014 [FLAC, image +.cue, lossless]

 
Автор Сообщение

sergej644 ®

Пол:

Стаж: 4 года 11 месяцев

Сообщений: 6046

Откуда: Soviet Union



Награды: Нет

Торрент-статистика

Создавать темы 16-Фев-2016 17:30

[Цитировать]

-Yngwie Malmsteen - Now Your Ships Are Burned (The Polydor Years 1984-1990)(4CD) --
Год издания: 2014
Страна: Sweden
Жанр: Neoclassical Metal, Instrumental Rock, Heavy Metal, Hard Rock
Продолжительность: 05:04:40-Лейбл издания: Polydor
Страна-выпуска диска: EU
Номер по каталогу: 5356718-Формат: FLAC
Битрейт аудио: Lossless
Тип рипа: image +.cue
Наличие сканов в содержимом раздачи: да
-

Трэклист

CD 1 || 01:17:36


01. Black Star (04:55)
02. Far Beyond The Sun (05:53)
03. Now Your Ships Are Burned (04:12)
04. Evil Eye (05:15)
05. Icarus' Dream Suite Op.4 (08:34)
06. As Above, So Below (04:40)
07. Little Savage (05:23)
08. Farewell (00:52)
09. Prelude (01:00)
10. I'll See The Light, Tonight (04:28)
11. Don't Let It End (04:10)
12. Disciples Of Hell (05:54)
13. I Am A Viking (06:01)
14. Overture 1383 (02:59)
15. Anguish And Fear (03:51)
16. On The Run Again (03:26)
17. Soldier Without Faith (06:10)

CD 2 || 01:14:09


01. Caught In The Middle (04:22)
02. Marching Out (03:11)
03. Far Beyond The Sun (Live) (05:56)
04. I Am A Viking (Live) (05:55)
05. You Don't Remember, I'll Never Forget (04:31)
06. Liar (04:10)
07. Queen In Love (04:05)
08. Crying (05:05)
09. Fury (03:57)
10. Fire (04:13)
11. Magic Mirror (03:54)
12. Dark Ages (03:55)
13. Trilogy Suite Op. 5 (07:20)
14. Rising Force (04:25)
15. Hold On (05:12)
16. Heaven Tonight (04:07)

CD 3 || 01:14:25


01. Dreaming (Tell Me) (05:24)
02. Bite The Bullet (01:36)
03. Riot In The Dungeons (04:25)
04. Deja Vu (04:18)
05. Crystal Ball (04:57)
06. Now Is The Time (04:34)
07. Faster Than The Speed Of Light (04:31)
08. Krakatau (06:07)
09. Memories (01:18)
10. Liar (03:57)
11. Queen In Love (03:56)
12. Deja Vu (04:06)
13. Far Beyond The Sun (08:18)
14. Heaven Tonight (04:28)
15. Dreaming (Tell Me) (06:35)
16. You Don't Remember, I'll Never Forget (06:03)

CD 4 || 01:18:30


01. Guiter Solo (Trilogy Suite Op.5 / Spasebo Blues) (10:20)
02. Crystal Ball (06:04)
03. Black Star (06:10)
04. Spanish Castle Magic (06:48)
05. Making Love (04:57)
06. Bedroom Eyes (04:03)
07. Save Our Love (05:25)
08. Matherless Child (04:14)
09. Devil In Disguise (06:12)
10. Judas (04:28)
11. What Do You Want (03:52)
12. Demon Driver (03:26)
13. Faultline (05:09)
14. See You In Hell (Don't Be Late) (03:40)
15. Eclipse (03:47)
-

Лог создания рипа

CD 1

Exact Audio Copy V1.1 from 23. June 2015
EAC extraction logfile from 11. February 2016, 15:41
Yngwie Malmsteen / Now Your Ships Are Burned - The Polydor Years 1984-1990  CD1
Used drive  : PIONEER DVD-RW  DVR-112D   Adapter: 0  ID: 0
Read mode               : Secure
Utilize accurate stream : Yes
Defeat audio cache      : Yes
Make use of C2 pointers : No
Read offset correction                      : 48
Overread into Lead-In and Lead-Out          : No
Fill up missing offset samples with silence : Yes
Delete leading and trailing silent blocks   : No
Null samples used in CRC calculations       : Yes
Used interface                              : Installed external ASPI interface
Used output format              : User Defined Encoder
Selected bitrate                : 1024 kBit/s
Quality                         : High
Add ID3 tag                     : No
Command line compressor         : C:\Program Files\Exact Audio Copy\FLAC\FLAC.EXE
Additional command line options : -V -8 -T "Date=%year%" -T "Genre=%genre%" %source%
TOC of the extracted CD
     Track |   Start  |  Length  | Start sector | End sector
    ---------------------------------------------------------
        1  |  0:00.00 |  4:54.56 |         0    |    22105
        2  |  4:54.56 |  5:52.51 |     22106    |    48556
        3  | 10:47.32 |  4:11.62 |     48557    |    67443
        4  | 14:59.19 |  5:14.14 |     67444    |    91007
        5  | 20:13.33 |  8:33.50 |     91008    |   129532
        6  | 28:47.08 |  4:39.20 |    129533    |   150477
        7  | 33:26.28 |  5:22.49 |    150478    |   174676
        8  | 38:49.02 |  0:51.15 |    174677    |   178516
        9  | 39:40.17 |  0:59.67 |    178517    |   183008
       10  | 40:40.09 |  4:27.51 |    183009    |   203084
       11  | 45:07.60 |  4:09.36 |    203085    |   221795
       12  | 49:17.21 |  5:53.37 |    221796    |   248307
       13  | 55:10.58 |  6:00.56 |    248308    |   275363
       14  | 61:11.39 |  2:58.70 |    275364    |   288783
       15  | 64:10.34 |  3:50.45 |    288784    |   306078
       16  | 68:01.04 |  3:25.12 |    306079    |   321465
       17  | 71:26.16 |  6:09.22 |    321466    |   349162
Range status and errors
Selected range
     Filename C:\CDRip by Deminbek\Yngwie Malmsteen - Now Your Ships Are Burned - The Polydor Years 1984-1990  CD1.wav
     Peak level 97.7 %
     Extraction speed 8.2 X
     Range quality 100.0 %
     Test CRC DD13CEC3
     Copy CRC DD13CEC3
     Copy OK
No errors occurred
AccurateRip summary
Track  1  accurately ripped (confidence 2)  [3A9125C9]  (AR v2)
Track  2  accurately ripped (confidence 2)  [4B2ECAF0]  (AR v2)
Track  3  accurately ripped (confidence 2)  [B1E8E2F6]  (AR v2)
Track  4  accurately ripped (confidence 2)  [2C9845C4]  (AR v2)
Track  5  accurately ripped (confidence 2)  [00512F81]  (AR v2)
Track  6  accurately ripped (confidence 2)  [1DA49B17]  (AR v2)
Track  7  accurately ripped (confidence 2)  [F5017CD4]  (AR v2)
Track  8  accurately ripped (confidence 2)  [98FCBEB8]  (AR v2)
Track  9  accurately ripped (confidence 2)  [0E2C6CA4]  (AR v2)
Track 10  accurately ripped (confidence 2)  [2C82688D]  (AR v2)
Track 11  accurately ripped (confidence 2)  [8CF3646B]  (AR v2)
Track 12  accurately ripped (confidence 2)  [FF57DFA2]  (AR v2)
Track 13  accurately ripped (confidence 2)  [C77993F6]  (AR v2)
Track 14  accurately ripped (confidence 2)  [D82C1916]  (AR v2)
Track 15  accurately ripped (confidence 2)  [093A6B29]  (AR v2)
Track 16  accurately ripped (confidence 2)  [81FF62F6]  (AR v2)
Track 17  accurately ripped (confidence 2)  [28532738]  (AR v2)
All tracks accurately ripped
End of status report
---- CUETools DB Plugin V2.1.6
[CTDB TOCID: cc0Pm7MWPLZsIux9yKaxhdRvp2c-] found
Submit result: cc0Pm7MWPLZsIux9yKaxhdRvp2c- has been confirmed
Track | CTDB Status
  1   | (6/6) Accurately ripped
  2   | (6/6) Accurately ripped
  3   | (6/6) Accurately ripped
  4   | (6/6) Accurately ripped
  5   | (6/6) Accurately ripped
  6   | (6/6) Accurately ripped
  7   | (6/6) Accurately ripped
  8   | (6/6) Accurately ripped
  9   | (6/6) Accurately ripped
10   | (6/6) Accurately ripped
11   | (6/6) Accurately ripped
12   | (6/6) Accurately ripped
13   | (6/6) Accurately ripped
14   | (6/6) Accurately ripped
15   | (6/6) Accurately ripped
16   | (6/6) Accurately ripped
17   | (6/6) Accurately ripped

CD 2

Exact Audio Copy V1.1 from 23. June 2015
EAC extraction logfile from 11. February 2016, 16:05
Yngwie Malmsteen / Now Your Ships Are Burned - The Polydor Years 1984-1990 CD2
Used drive  : PIONEER DVD-RW  DVR-112D   Adapter: 0  ID: 0
Read mode               : Secure
Utilize accurate stream : Yes
Defeat audio cache      : Yes
Make use of C2 pointers : No
Read offset correction                      : 48
Overread into Lead-In and Lead-Out          : No
Fill up missing offset samples with silence : Yes
Delete leading and trailing silent blocks   : No
Null samples used in CRC calculations       : Yes
Used interface                              : Installed external ASPI interface
Used output format              : User Defined Encoder
Selected bitrate                : 1024 kBit/s
Quality                         : High
Add ID3 tag                     : No
Command line compressor         : C:\Program Files\Exact Audio Copy\FLAC\FLAC.EXE
Additional command line options : -V -8 -T "Date=%year%" -T "Genre=%genre%" %source%
TOC of the extracted CD
     Track |   Start  |  Length  | Start sector | End sector
    ---------------------------------------------------------
        1  |  0:00.00 |  4:21.07 |         0    |    19581
        2  |  4:21.07 |  3:10.51 |     19582    |    33882
        3  |  7:31.58 |  5:55.12 |     33883    |    60519
        4  | 13:26.70 |  5:54.20 |     60520    |    87089
        5  | 19:21.15 |  4:30.55 |     87090    |   107394
        6  | 23:51.70 |  4:09.66 |    107395    |   126135
        7  | 28:01.61 |  4:04.49 |    126136    |   144484
        8  | 32:06.35 |  5:04.05 |    144485    |   167289
        9  | 37:10.40 |  3:56.30 |    167290    |   185019
       10  | 41:06.70 |  4:12.03 |    185020    |   203922
       11  | 45:18.73 |  3:53.64 |    203923    |   221461
       12  | 49:12.62 |  3:54.11 |    221462    |   239022
       13  | 53:06.73 |  7:19.43 |    239023    |   271990
       14  | 60:26.41 |  4:24.12 |    271991    |   291802
       15  | 64:50.53 |  5:11.68 |    291803    |   315195
       16  | 70:02.46 |  4:06.25 |    315196    |   333670
Range status and errors
Selected range
     Filename C:\CDRip by Deminbek\Yngwie Malmsteen - Now Your Ships Are Burned - The Polydor Years 1984-1990 CD2.wav
     Peak level 97.7 %
     Extraction speed 8.0 X
     Range quality 100.0 %
     Test CRC 401BC8C2
     Copy CRC 401BC8C2
     Copy OK
No errors occurred
AccurateRip summary
Track  1  accurately ripped (confidence 2)  [4FDA4A6C]  (AR v2)
Track  2  accurately ripped (confidence 2)  [3AE4CCF7]  (AR v2)
Track  3  accurately ripped (confidence 1)  [0474A6B8]  (AR v2)
Track  4  accurately ripped (confidence 1)  [99A5CD11]  (AR v2)
Track  5  accurately ripped (confidence 2)  [1D8FF983]  (AR v2)
Track  6  accurately ripped (confidence 2)  [602D3C3B]  (AR v2)
Track  7  accurately ripped (confidence 2)  [0AFA81A9]  (AR v2)
Track  8  accurately ripped (confidence 2)  [C16F90D3]  (AR v2)
Track  9  accurately ripped (confidence 2)  [9DD4EEE7]  (AR v2)
Track 10  accurately ripped (confidence 2)  [2B5B43B8]  (AR v2)
Track 11  accurately ripped (confidence 2)  [8D69A0BA]  (AR v2)
Track 12  accurately ripped (confidence 2)  [01A64BEA]  (AR v2)
Track 13  accurately ripped (confidence 2)  [8F9B477C]  (AR v2)
Track 14  accurately ripped (confidence 2)  [1D1813F3]  (AR v2)
Track 15  accurately ripped (confidence 2)  [308D03AF]  (AR v2)
Track 16  accurately ripped (confidence 2)  [E8BBEEC0]  (AR v2)
All tracks accurately ripped
End of status report
---- CUETools DB Plugin V2.1.6
[CTDB TOCID: 1SaT8ayPSwnWBmblmJxjkwnKmaQ-] found
Submit result: 1SaT8ayPSwnWBmblmJxjkwnKmaQ- has been confirmed
Track | CTDB Status
  1   | (6/6) Accurately ripped
  2   | (6/6) Accurately ripped
  3   | (6/6) Accurately ripped
  4   | (6/6) Accurately ripped
  5   | (6/6) Accurately ripped
  6   | (6/6) Accurately ripped
  7   | (6/6) Accurately ripped
  8   | (6/6) Accurately ripped
  9   | (6/6) Accurately ripped
10   | (6/6) Accurately ripped
11   | (6/6) Accurately ripped
12   | (6/6) Accurately ripped
13   | (6/6) Accurately ripped
14   | (6/6) Accurately ripped
15   | (6/6) Accurately ripped
16   | (6/6) Accurately ripped

CD 3

Exact Audio Copy V1.1 from 23. June 2015
EAC extraction logfile from 11. February 2016, 16:31
Yngwie Malmsteen / Now Your Ships Are Burned - The Polydor Years 1984-1990 CD3
Used drive  : PIONEER DVD-RW  DVR-112D   Adapter: 0  ID: 0
Read mode               : Secure
Utilize accurate stream : Yes
Defeat audio cache      : Yes
Make use of C2 pointers : No
Read offset correction                      : 48
Overread into Lead-In and Lead-Out          : No
Fill up missing offset samples with silence : Yes
Delete leading and trailing silent blocks   : No
Null samples used in CRC calculations       : Yes
Used interface                              : Installed external ASPI interface
Used output format              : User Defined Encoder
Selected bitrate                : 1024 kBit/s
Quality                         : High
Add ID3 tag                     : No
Command line compressor         : C:\Program Files\Exact Audio Copy\FLAC\FLAC.EXE
Additional command line options : -V -8 -T "Date=%year%" -T "Genre=%genre%" %source%
TOC of the extracted CD
     Track |   Start  |  Length  | Start sector | End sector
    ---------------------------------------------------------
        1  |  0:00.00 |  5:23.16 |         0    |    24240
        2  |  5:23.16 |  1:35.23 |     24241    |    31388
        3  |  6:58.39 |  4:24.07 |     31389    |    51195
        4  | 11:22.46 |  4:17.44 |     51196    |    70514
        5  | 15:40.15 |  4:56.50 |     70515    |    92764
        6  | 20:36.65 |  4:33.72 |     92765    |   113311
        7  | 25:10.62 |  4:30.51 |    113312    |   133612
        8  | 29:41.38 |  6:06.08 |    133613    |   161070
        9  | 35:47.46 |  1:17.52 |    161071    |   166897
       10  | 37:05.23 |  3:56.50 |    166898    |   184647
       11  | 41:01.73 |  3:55.17 |    184648    |   202289
       12  | 44:57.15 |  4:05.16 |    202290    |   220680
       13  | 49:02.31 |  8:17.37 |    220681    |   257992
       14  | 57:19.68 |  4:27.31 |    257993    |   278048
       15  | 61:47.24 |  6:34.37 |    278049    |   307635
       16  | 68:21.61 |  6:02.69 |    307636    |   334854
Range status and errors
Selected range
     Filename C:\CDRip by Deminbek\Yngwie Malmsteen - Now Your Ships Are Burned - The Polydor Years 1984-1990 CD3.wav
     Peak level 97.7 %
     Extraction speed 7.9 X
     Range quality 99.9 %
     Test CRC 3843367F
     Copy CRC 3843367F
     Copy OK
No errors occurred
AccurateRip summary
Track  1  accurately ripped (confidence 2)  [DBEC4059]  (AR v2)
Track  2  accurately ripped (confidence 2)  [6BED5DE0]  (AR v2)
Track  3  accurately ripped (confidence 2)  [BECD5A1E]  (AR v2)
Track  4  accurately ripped (confidence 2)  [A785C93B]  (AR v2)
Track  5  accurately ripped (confidence 2)  [BE10DBE9]  (AR v2)
Track  6  accurately ripped (confidence 2)  [6A37190A]  (AR v2)
Track  7  accurately ripped (confidence 2)  [B7B8FC3D]  (AR v2)
Track  8  accurately ripped (confidence 2)  [8C760BD2]  (AR v2)
Track  9  accurately ripped (confidence 2)  [6C085F4C]  (AR v2)
Track 10  accurately ripped (confidence 1)  [6BA9C6EB]  (AR v2)
Track 11  accurately ripped (confidence 1)  [9AA15AF6]  (AR v2)
Track 12  accurately ripped (confidence 1)  [1FC91F18]  (AR v2)
Track 13  accurately ripped (confidence 1)  [CF70B827]  (AR v2)
Track 14  accurately ripped (confidence 1)  [E989F9F0]  (AR v2)
Track 15  accurately ripped (confidence 1)  [503787A2]  (AR v2)
Track 16  accurately ripped (confidence 1)  [2D718437]  (AR v2)
All tracks accurately ripped
End of status report
---- CUETools DB Plugin V2.1.6
[CTDB TOCID: ke_y8zoJKwRUVDI_wKfatNm_3ac-] found
Submit result: ke_y8zoJKwRUVDI_wKfatNm_3ac- has been confirmed
Track | CTDB Status
  1   | (5/5) Accurately ripped
  2   | (5/5) Accurately ripped
  3   | (5/5) Accurately ripped
  4   | (5/5) Accurately ripped
  5   | (5/5) Accurately ripped
  6   | (5/5) Accurately ripped
  7   | (5/5) Accurately ripped
  8   | (5/5) Accurately ripped
  9   | (5/5) Accurately ripped
10   | (5/5) Accurately ripped
11   | (5/5) Accurately ripped
12   | (5/5) Accurately ripped
13   | (5/5) Accurately ripped
14   | (5/5) Accurately ripped
15   | (5/5) Accurately ripped
16   | (5/5) Accurately ripped

CD 4

Exact Audio Copy V1.1 from 23. June 2015
EAC extraction logfile from 11. February 2016, 16:55
Yngwie Malmsteen / Now Your Ships Are Burned - The Polydor Years 1984-1990 CD4
Used drive  : PIONEER DVD-RW  DVR-112D   Adapter: 0  ID: 0
Read mode               : Secure
Utilize accurate stream : Yes
Defeat audio cache      : Yes
Make use of C2 pointers : No
Read offset correction                      : 48
Overread into Lead-In and Lead-Out          : No
Fill up missing offset samples with silence : Yes
Delete leading and trailing silent blocks   : No
Null samples used in CRC calculations       : Yes
Used interface                              : Installed external ASPI interface
Used output format              : User Defined Encoder
Selected bitrate                : 1024 kBit/s
Quality                         : High
Add ID3 tag                     : No
Command line compressor         : C:\Program Files\Exact Audio Copy\FLAC\FLAC.EXE
Additional command line options : -V -8 -T "Date=%year%" -T "Genre=%genre%" %source%
TOC of the extracted CD
     Track |   Start  |  Length  | Start sector | End sector
    ---------------------------------------------------------
        1  |  0:00.00 | 10:19.57 |         0    |    46481
        2  | 10:19.57 |  6:03.43 |     46482    |    73749
        3  | 16:23.25 |  6:09.03 |     73750    |   101427
        4  | 22:32.28 |  6:47.44 |    101428    |   131996
        5  | 29:19.72 |  4:56.42 |    131997    |   154238
        6  | 34:16.39 |  4:02.36 |    154239    |   172424
        7  | 38:19.00 |  5:24.47 |    172425    |   196771
        8  | 43:43.47 |  4:13.66 |    196772    |   215812
        9  | 47:57.38 |  6:11.55 |    215813    |   243692
       10  | 54:09.18 |  4:27.59 |    243693    |   263776
       11  | 58:37.02 |  3:51.26 |    263777    |   281127
       12  | 62:28.28 |  3:25.49 |    281128    |   296551
       13  | 65:54.02 |  5:08.44 |    296552    |   319695
       14  | 71:02.46 |  3:39.48 |    319696    |   336168
       15  | 74:42.19 |  3:46.58 |    336169    |   353176
Range status and errors
Selected range
     Filename C:\CDRip by Deminbek\Yngwie Malmsteen - Now Your Ships Are Burned - The Polydor Years 1984-1990 CD4.wav
     Peak level 97.7 %
     Extraction speed 8.2 X
     Range quality 100.0 %
     Test CRC BFE1E177
     Copy CRC BFE1E177
     Copy OK
No errors occurred
AccurateRip summary
Track  1  accurately ripped (confidence 1)  [A4795A23]  (AR v2)
Track  2  accurately ripped (confidence 1)  [BA04BB40]  (AR v2)
Track  3  accurately ripped (confidence 1)  [E74C74CA]  (AR v2)
Track  4  accurately ripped (confidence 1)  [200F36F9]  (AR v2)
Track  5  accurately ripped (confidence 1)  [20FB262D]  (AR v2)
Track  6  accurately ripped (confidence 1)  [ABE71D1C]  (AR v2)
Track  7  accurately ripped (confidence 1)  [B730CD7F]  (AR v2)
Track  8  accurately ripped (confidence 1)  [44C87F5C]  (AR v2)
Track  9  accurately ripped (confidence 1)  [2EFC4387]  (AR v2)
Track 10  accurately ripped (confidence 1)  [D119C035]  (AR v2)
Track 11  accurately ripped (confidence 1)  [141BDD5D]  (AR v2)
Track 12  accurately ripped (confidence 1)  [BEBDDFBF]  (AR v2)
Track 13  accurately ripped (confidence 1)  [21D9E514]  (AR v2)
Track 14  accurately ripped (confidence 1)  [303A317E]  (AR v2)
Track 15  accurately ripped (confidence 1)  [9F138C70]  (AR v2)
All tracks accurately ripped
End of status report
---- CUETools DB Plugin V2.1.6
[CTDB TOCID: hjEZwYrFyUccTn5sfhMLIdwd4Gg-] found
Submit result: hjEZwYrFyUccTn5sfhMLIdwd4Gg- has been confirmed
Track | CTDB Status
  1   | (5/5) Accurately ripped
  2   | (5/5) Accurately ripped
  3   | (5/5) Accurately ripped
  4   | (5/5) Accurately ripped
  5   | (5/5) Accurately ripped
  6   | (5/5) Accurately ripped
  7   | (5/5) Accurately ripped
  8   | (5/5) Accurately ripped
  9   | (5/5) Accurately ripped
10   | (5/5) Accurately ripped
11   | (5/5) Accurately ripped
12   | (5/5) Accurately ripped
13   | (5/5) Accurately ripped
14   | (5/5) Accurately ripped
15   | (5/5) Accurately ripped

Индексная карта (non-compilant .cue)

CD 1

REM GENRE "Heavy Metal"
REM DATE 2014
REM DISCID F8122F11
REM COMMENT "ExactAudioCopy v1.1"
CATALOG 0600753567197
PERFORMER "Yngwie Malmsteen"
TITLE "Now Your Ships Are Burned - The Polydor Years 1984-1990  CD1"
FILE "Yngwie Malmsteen - Now Your Ships Are Burned - The Polydor Years 1984-1990 CD1.flac" WAVE
  TRACK 01 AUDIO
    TITLE "Black Star"
    PERFORMER "Yngwie Malmsteen"
    ISRC JPA018400010
    INDEX 01 00:00:00
  TRACK 02 AUDIO
    TITLE "Far Beyond The Sun"
    PERFORMER "Yngwie Malmsteen"
    ISRC JPA018400020
    INDEX 00 04:51:70
    INDEX 01 04:54:56
  TRACK 03 AUDIO
    TITLE "Now Your Ships Are Burned"
    PERFORMER "Yngwie Malmsteen"
    ISRC JPA018400030
    INDEX 00 10:44:17
    INDEX 01 10:47:32
  TRACK 04 AUDIO
    TITLE "Evil Eye"
    PERFORMER "Yngwie Malmsteen"
    ISRC JPA018400040
    INDEX 00 14:55:70
    INDEX 01 14:59:19
  TRACK 05 AUDIO
    TITLE "Icarus' Dream Suite Op.4"
    PERFORMER "Yngwie Malmsteen"
    ISRC JPA018400050
    INDEX 00 20:12:12
    INDEX 01 20:13:33
  TRACK 06 AUDIO
    TITLE "As Above, So Below"
    PERFORMER "Yngwie Malmsteen"
    ISRC JPA018400060
    INDEX 00 28:44:37
    INDEX 01 28:47:08
  TRACK 07 AUDIO
    TITLE "Little Savage"
    PERFORMER "Yngwie Malmsteen"
    ISRC JPA018400070
    INDEX 00 33:23:14
    INDEX 01 33:26:28
  TRACK 08 AUDIO
    TITLE "Farewell"
    PERFORMER "Yngwie Malmsteen"
    ISRC JPA018400080
    INDEX 00 38:46:58
    INDEX 01 38:49:02
  TRACK 09 AUDIO
    TITLE "Prelude"
    PERFORMER "Yngwie Malmsteen"
    ISRC JPPO08506910
    INDEX 00 39:37:33
    INDEX 01 39:40:17
  TRACK 10 AUDIO
    TITLE "I'll See The Light, Tonight"
    PERFORMER "Yngwie Malmsteen"
    ISRC JPPO08506900
    INDEX 01 40:40:09
  TRACK 11 AUDIO
    TITLE "Don't Let It End"
    PERFORMER "Yngwie Malmsteen"
    ISRC JPPO08506920
    INDEX 00 45:04:06
    INDEX 01 45:07:60
  TRACK 12 AUDIO
    TITLE "Disciples Of Hell"
    PERFORMER "Yngwie Malmsteen"
    ISRC JPPO08506930
    INDEX 00 49:14:60
    INDEX 01 49:17:21
  TRACK 13 AUDIO
    TITLE "I Am A Viking"
    PERFORMER "Yngwie Malmsteen"
    ISRC JPPO08506940
    INDEX 01 55:10:58
  TRACK 14 AUDIO
    TITLE "Overture 1383"
    PERFORMER "Yngwie Malmsteen"
    ISRC JPPO08506950
    INDEX 00 61:09:16
    INDEX 01 61:11:39
  TRACK 15 AUDIO
    TITLE "Anguish And Fear"
    PERFORMER "Yngwie Malmsteen"
    ISRC JPPO08506960
    INDEX 01 64:10:34
  TRACK 16 AUDIO
    TITLE "On The Run Again"
    PERFORMER "Yngwie Malmsteen"
    ISRC JPPO08506970
    INDEX 00 67:57:02
    INDEX 01 68:01:04
  TRACK 17 AUDIO
    TITLE "Soldier Without Faith"
    PERFORMER "Yngwie Malmsteen"
    ISRC JPPO08506980
    INDEX 00 71:22:55
    INDEX 01 71:26:16

CD 2

REM GENRE "Heavy Metal"
REM DATE 2014
REM DISCID E8116010
REM COMMENT "ExactAudioCopy v1.1"
CATALOG 0600753567203
PERFORMER "Yngwie Malmsteen"
TITLE "Now Your Ships Are Burned - The Polydor Years 1984-1990 CD2"
FILE "Yngwie Malmsteen - Now Your Ships Are Burned - The Polydor Years 1984-1990 CD2.flac" WAVE
  TRACK 01 AUDIO
    TITLE "Caught In The Middle"
    PERFORMER "Yngwie Malmsteen"
    ISRC JPPO08506990
    INDEX 01 00:00:00
  TRACK 02 AUDIO
    TITLE "Marching Out"
    PERFORMER "Yngwie Malmsteen"
    ISRC JPPO08507000
    INDEX 00 04:17:08
    INDEX 01 04:21:07
  TRACK 03 AUDIO
    TITLE "Far Beyond The Sun (Live)"
    PERFORMER "Yngwie Malmsteen"
    ISRC JPPO01411962
    INDEX 00 07:29:46
    INDEX 01 07:31:58
  TRACK 04 AUDIO
    TITLE "I Am A Viking (Live)"
    PERFORMER "Yngwie Malmsteen"
    ISRC JPPO01411961
    INDEX 01 13:26:70
  TRACK 05 AUDIO
    TITLE "You Don't Remember, I'll Never Forget"
    PERFORMER "Yngwie Malmsteen"
    ISRC USF068625040
    INDEX 00 19:17:49
    INDEX 01 19:21:15
  TRACK 06 AUDIO
    TITLE "Liar"
    PERFORMER "Yngwie Malmsteen"
    ISRC USF068625050
    INDEX 00 23:50:36
    INDEX 01 23:51:70
  TRACK 07 AUDIO
    TITLE "Queen In Love"
    PERFORMER "Yngwie Malmsteen"
    ISRC USF068625060
    INDEX 00 27:59:14
    INDEX 01 28:01:61
  TRACK 08 AUDIO
    TITLE "Crying"
    PERFORMER "Yngwie Malmsteen"
    ISRC USF068625070
    INDEX 00 32:03:53
    INDEX 01 32:06:35
  TRACK 09 AUDIO
    TITLE "Fury"
    PERFORMER "Yngwie Malmsteen"
    ISRC USF068625080
    INDEX 00 37:07:52
    INDEX 01 37:10:40
  TRACK 10 AUDIO
    TITLE "Fire"
    PERFORMER "Yngwie Malmsteen"
    ISRC USF068625090
    INDEX 00 41:04:09
    INDEX 01 41:06:70
  TRACK 11 AUDIO
    TITLE "Magic Mirror"
    PERFORMER "Yngwie Malmsteen"
    ISRC USF068625100
    INDEX 00 45:16:23
    INDEX 01 45:18:73
  TRACK 12 AUDIO
    TITLE "Dark Ages"
    PERFORMER "Yngwie Malmsteen"
    ISRC USF068625110
    INDEX 00 49:10:35
    INDEX 01 49:12:62
  TRACK 13 AUDIO
    TITLE "Trilogy Suite Op. 5"
    PERFORMER "Yngwie Malmsteen"
    ISRC USF068625120
    INDEX 01 53:06:73
  TRACK 14 AUDIO
    TITLE "Rising Force"
    PERFORMER "Yngwie Malmsteen"
    ISRC USF068825490
    INDEX 00 60:23:37
    INDEX 01 60:26:41
  TRACK 15 AUDIO
    TITLE "Hold On"
    PERFORMER "Yngwie Malmsteen"
    ISRC USF068825500
    INDEX 01 64:50:53
  TRACK 16 AUDIO
    TITLE "Heaven Tonight"
    PERFORMER "Yngwie Malmsteen"
    ISRC USF068825610
    INDEX 01 70:02:46

CD 3

REM GENRE "Heavy Metal"
REM DATE 2014
REM DISCID DD117010
REM COMMENT "ExactAudioCopy v1.1"
CATALOG 0600753567210
PERFORMER "Yngwie Malmsteen"
TITLE "Now Your Ships Are Burned - The Polydor Years 1984-1990 CD3"
FILE "Yngwie Malmsteen - Now Your Ships Are Burned - The Polydor Years 1984-1990 CD3.flac" WAVE
  TRACK 01 AUDIO
    TITLE "Dreaming (Tell Me)"
    PERFORMER "Yngwie Malmsteen"
    ISRC USF068825520
    INDEX 01 00:00:00
  TRACK 02 AUDIO
    TITLE "Bite The Bullet"
    PERFORMER "Yngwie Malmsteen"
    ISRC USF068825530
    INDEX 00 05:20:43
    INDEX 01 05:23:16
  TRACK 03 AUDIO
    TITLE "Riot In The Dungeons"
    PERFORMER "Yngwie Malmsteen"
    ISRC USF068825540
    INDEX 01 06:58:39
  TRACK 04 AUDIO
    TITLE "Deja Vu"
    PERFORMER "Yngwie Malmsteen"
    ISRC USF068825550
    INDEX 00 11:20:12
    INDEX 01 11:22:46
  TRACK 05 AUDIO
    TITLE "Crystal Ball"
    PERFORMER "Yngwie Malmsteen"
    ISRC USF068825560
    INDEX 00 15:38:34
    INDEX 01 15:40:15
  TRACK 06 AUDIO
    TITLE "Now Is The Time"
    PERFORMER "Yngwie Malmsteen"
    ISRC USF068825570
    INDEX 00 20:35:46
    INDEX 01 20:36:65
  TRACK 07 AUDIO
    TITLE "Faster Than The Speed Of Light"
    PERFORMER "Yngwie Malmsteen"
    ISRC USF068825580
    INDEX 01 25:10:62
  TRACK 08 AUDIO
    TITLE "Krakatau"
    PERFORMER "Yngwie Malmsteen"
    ISRC USF068825590
    INDEX 00 29:41:03
    INDEX 01 29:41:38
  TRACK 09 AUDIO
    TITLE "Memories"
    PERFORMER "Yngwie Malmsteen"
    ISRC USF068825600
    INDEX 01 35:47:46
  TRACK 10 AUDIO
    TITLE "Liar"
    PERFORMER "Yngwie Malmsteen"
    ISRC USF068926970
    INDEX 00 37:01:20
    INDEX 01 37:05:23
  TRACK 11 AUDIO
    TITLE "Queen In Love"
    PERFORMER "Yngwie Malmsteen"
    ISRC USF068926980
    INDEX 01 41:01:73
  TRACK 12 AUDIO
    TITLE "Deja Vu"
    PERFORMER "Yngwie Malmsteen"
    ISRC USF068926990
    INDEX 01 44:57:15
  TRACK 13 AUDIO
    TITLE "Far Beyond The Sun"
    PERFORMER "Yngwie Malmsteen"
    ISRC USF068927000
    INDEX 01 49:02:31
  TRACK 14 AUDIO
    TITLE "Heaven Tonight"
    PERFORMER "Yngwie Malmsteen"
    ISRC USF068927010
    INDEX 01 57:19:68
  TRACK 15 AUDIO
    TITLE "Dreaming (Tell Me)"
    PERFORMER "Yngwie Malmsteen"
    ISRC USF068927020
    INDEX 01 61:47:24
  TRACK 16 AUDIO
    TITLE "You Don't Remember, I'll Never Forget"
    PERFORMER "Yngwie Malmsteen"
    ISRC USF068927030
    INDEX 01 68:21:61

CD 4

REM GENRE "Hard Rock"
REM DATE 2014
REM DISCID E212650F
REM COMMENT "ExactAudioCopy v1.1"
CATALOG 0600753567227
PERFORMER "Yngwie Malmsteen"
TITLE "Now Your Ships Are Burned - The Polydor Years 1984-1990 CD4"
FILE "Yngwie Malmsteen - Now Your Ships Are Burned - The Polydor Years 1984-1990 CD4.flac" WAVE
  TRACK 01 AUDIO
    TITLE "Guiter Solo (Trilogy Suite Op.5 / Spasebo Blues)"
    PERFORMER "Yngwie Malmsteen"
    ISRC USF068927040
    INDEX 01 00:00:00
  TRACK 02 AUDIO
    TITLE "Crystal Ball"
    PERFORMER "Yngwie Malmsteen"
    ISRC USF068927050
    INDEX 01 10:19:57
  TRACK 03 AUDIO
    TITLE "Black Star"
    PERFORMER "Yngwie Malmsteen"
    ISRC USF068927060
    INDEX 01 16:23:25
  TRACK 04 AUDIO
    TITLE "Spanish Castle Magic"
    PERFORMER "Yngwie Malmsteen"
    ISRC USF068927070
    INDEX 01 22:32:28
  TRACK 05 AUDIO
    TITLE "Making Love"
    PERFORMER "Yngwie Malmsteen"
    ISRC USF069025240
    INDEX 00 29:17:12
    INDEX 01 29:19:72
  TRACK 06 AUDIO
    TITLE "Bedroom Eyes"
    PERFORMER "Yngwie Malmsteen"
    ISRC USF069025250
    INDEX 01 34:16:39
  TRACK 07 AUDIO
    TITLE "Save Our Love"
    PERFORMER "Yngwie Malmsteen"
    ISRC USF069025260
    INDEX 01 38:19:00
  TRACK 08 AUDIO
    TITLE "Matherless Child"
    PERFORMER "Yngwie Malmsteen"
    ISRC USF069025270
    INDEX 01 43:43:47
  TRACK 09 AUDIO
    TITLE "Devil In Disguise"
    PERFORMER "Yngwie Malmsteen"
    ISRC USF069025280
    INDEX 01 47:57:38
  TRACK 10 AUDIO
    TITLE "Judas"
    PERFORMER "Yngwie Malmsteen"
    ISRC USF069025290
    INDEX 01 54:09:18
  TRACK 11 AUDIO
    TITLE "What Do You Want"
    PERFORMER "Yngwie Malmsteen"
    ISRC USF069025300
    INDEX 01 58:37:02
  TRACK 12 AUDIO
    TITLE "Demon Driver"
    PERFORMER "Yngwie Malmsteen"
    ISRC USWWW0127994
    INDEX 01 62:28:28
  TRACK 13 AUDIO
    TITLE "Faultline"
    PERFORMER "Yngwie Malmsteen"
    ISRC USF069025320
    INDEX 01 65:54:02
  TRACK 14 AUDIO
    TITLE "See You In Hell (Don't Be Late)"
    PERFORMER "Yngwie Malmsteen"
    ISRC USF069025330
    INDEX 01 71:02:46
  TRACK 15 AUDIO
    TITLE "Eclipse"
    PERFORMER "Yngwie Malmsteen"
    ISRC USF069025340
    INDEX 01 74:42:19
--
[Профиль] [ЛС]
Кто просматривает тему:

Показать сообщения:    

Текущее время: Сегодня 23:30

Часовой пояс: GMT



Вы не можете начинать темы
Вы не можете отвечать на сообщения
Вы не можете редактировать свои сообщения
Вы не можете удалять свои сообщения
Вы не можете голосовать в опросах
Вы не можете прикреплять файлы к сообщениям
Вы не можете скачивать файлы