Yesterday / Yesterday (2019) BDRip 1080p от селезень | Лицензия

 
Author Message

TorrentFilm ®

Gender:

Longevity: 4 years 11 months

Posts: 7770



: None

Торрент-статистика

Post 29-Oct-2019 23:24

[Quote]

Информация о фильме
Название: Yesterday
Оригинальное название: Yesterday
Год выхода: 2019
Жанр: Мюзикл, фэнтези, мелодрама, комедия, музыка
Режиссер: Дэнни Бойл
В ролях: Химеш Патель, Лили Джеймс, Софи Ди Мартино, Эллиз Шаппелль, Мира Сайал, Гарри Мишель, Винсент Франклин, Джоэль Фрай, Майкл Киванука, Карма Суд

О фильме: Еще месяц назад Джек был обычным неудачником. Теперь он суперзвезда, миллионы людей слушают его песни, билеты на концерты раскупаются за секунду. В чем секрет? Все просто. Джек - единственный человек в мире, кто помнит о существовании The Beatles.
Страна: Великобритания, Россия, Китай
Студия: Etalon Film, Working Title Films
Продолжительность: 01:56:14
Перевод: Дублированный | Лицензия
Качество: BDRip 1080p
Видео: MPEG-4 AVC, 1920x804, 12.7 Mbit/s, 23.976 fps
Аудио #01: 48 kHz, AC3, 5.1, 640 Kbps | Лицензия | RUS |
Аудио #02: 48 kHz, AC3, 5.1, 448 Kbps | Оригинал | ENG |
Субтитры: Русские (Forced, songs, 2 x full), английские

MI

General
Unique ID : 300590271905616249224425308167693395846 (0xE223949FF000CB5FDD69680FC08FE786)
Complete name : D:Video111Yesterday.2019.Lic.BDRip.1080p.seleZen.mkv
Format : Matroska
Format version : Version 4
File size : 11.2 GiB
Duration : 1 h 56 min
Overall bit rate : 13.8 Mb/s
Movie name : Yesterday 2019 from селезень
Encoded date : UTC 2019-10-24 01:20:08
Writing application : mkvmerge v22.0.0 ('At The End Of The World') 64-bit
Writing library : libebml v1.3.5 + libmatroska v1.4.8
Video
ID : 1
Format : AVC
Format/Info : Advanced Video Codec
Format profile : High@L4.1
Format settings : CABAC / 5 Ref Frames
Format settings, CABAC : Yes
Format settings, Reference : 5 frames
Codec ID : V_MPEG4/ISO/AVC
Duration : 1 h 56 min
Bit rate : 12.7 Mb/s
Width : 1 920 pixels
Height : 804 pixels
Display aspect ratio : 2.40:1
Frame rate mode : Constant
Frame rate : 23.976 (24000/1001) FPS
Color space : YUV
Chroma subsampling : 4:2:0
Bit depth : 8 bits
Scan type : Progressive
Bits/(Pixel*Frame) : 0.343
Stream size : 10.3 GiB (92%)
Title : DON
Writing library : x264 core 157 r2970+47 cae74a0 t_mod_New [0-bit@all X86_64]
Encoding settings : cabac=1 / ref=5 / deblock=1:-3:-3 / analyse=0x3:0x133 / me=umh / subme=10 / psy=1 / fade_compensate=0.00 / psy_rd=1.00:0.00 / mixed_ref=1 / me_range=32 / chroma_me=1 / trellis=2 / 8x8dct=1 / cqm=0 / deadzone=21,11 / fast_pskip=0 / chroma_qp_offset=-2 / threads=24 / lookahead_threads=4 / sliced_threads=0 / nr=0 / decimate=0 / interlaced=0 / bluray_compat=0 / constrained_intra=0 / fgo=0 / bframes=8 / b_pyramid=2 / b_adapt=2 / b_bias=0 / direct=3 / weightb=1 / open_gop=0 / weightp=2 / keyint=250 / keyint_min=23 / scenecut=40 / intra_refresh=0 / rc=crf / mbtree=0 / crf=15.4000 / qcomp=0.60 / qpmin=0:0:0 / qpmax=69:69:69 / qpstep=4 / ip_ratio=1.40 / pb_ratio=1.30 / aq=3:0.85 / aq-sensitivity=10.00 / aq-factor=1.00:1.00:1.00 / aq2=0 / aq3=0
Language : English
Default : Yes
Forced : No
Audio #1
ID : 2
Format : AC-3
Format/Info : Audio Coding 3
Commercial name : Dolby Digital
Codec ID : A_AC3
Duration : 1 h 56 min
Bit rate mode : Constant
Bit rate : 640 kb/s
Channel(s) : 6 channels
Channel layout : L R C LFE Ls Rs
Sampling rate : 48.0 kHz
Frame rate : 31.250 FPS (1536 SPF)
Bit depth : 16 bits
Compression mode : Lossy
Stream size : 532 MiB (5%)
Title : Dub [License]
Language : Russian
Service kind : Complete Main
Default : Yes
Forced : Yes
Audio #2
ID : 3
Format : AC-3
Format/Info : Audio Coding 3
Commercial name : Dolby Digital
Codec ID : A_AC3
Duration : 1 h 56 min
Bit rate mode : Constant
Bit rate : 448 kb/s
Channel(s) : 6 channels
Channel layout : L R C LFE Ls Rs
Sampling rate : 48.0 kHz
Frame rate : 31.250 FPS (1536 SPF)
Bit depth : 16 bits
Compression mode : Lossy
Stream size : 372 MiB (3%)
Title : Original
Language : English
Service kind : Complete Main
Default : No
Forced : No
Text #1
ID : 4
Format : UTF-8
Codec ID : S_TEXT/UTF8
Codec ID/Info : UTF-8 Plain Text
Duration : 1 h 55 min
Bit rate : 0 b/s
Count of elements : 19
Stream size : 559 Bytes (0%)
Title : Forced
Language : Russian
Default : Yes
Forced : Yes
Text #2
ID : 5
Format : UTF-8
Codec ID : S_TEXT/UTF8
Codec ID/Info : UTF-8 Plain Text
Duration : 1 h 47 min
Bit rate : 13 b/s
Count of elements : 204
Stream size : 10.3 KiB (0%)
Title : Songs
Language : Russian
Default : No
Forced : No
Text #3
ID : 6
Format : UTF-8
Codec ID : S_TEXT/UTF8
Codec ID/Info : UTF-8 Plain Text
Duration : 1 h 55 min
Bit rate : 93 b/s
Count of elements : 1641
Stream size : 79.2 KiB (0%)
Title : Full [License]
Language : Russian
Default : No
Forced : No
Text #4
ID : 7
Format : UTF-8
Codec ID : S_TEXT/UTF8
Codec ID/Info : UTF-8 Plain Text
Duration : 1 h 51 min
Bit rate : 107 b/s
Count of elements : 2093
Stream size : 87.4 KiB (0%)
Title : Full [FOCS]
Language : Russian
Default : No
Forced : No
Text #5
ID : 8
Format : UTF-8
Codec ID : S_TEXT/UTF8
Codec ID/Info : UTF-8 Plain Text
Duration : 1 h 55 min
Bit rate : 79 b/s
Count of elements : 2244
Stream size : 67.1 KiB (0%)
Title : Full
Language : English
Default : No
Forced : No
Text #6
ID : 9
Format : UTF-8
Codec ID : S_TEXT/UTF8
Codec ID/Info : UTF-8 Plain Text
Duration : 1 h 55 min
Bit rate : 86 b/s
Count of elements : 2439
Stream size : 73.0 KiB (0%)
Title : SDH
Language : English
Default : No
Forced : No
Menu
00:00:00.000 : :Chapter 01
00:06:16.668 : :Chapter 02
00:11:19.679 : :Chapter 03
00:16:13.097 : :Chapter 04
00:21:28.287 : :Chapter 05
00:27:04.540 : :Chapter 06
00:33:31.885 : :Chapter 07
00:38:55.083 : :Chapter 08
00:45:53.250 : :Chapter 09
00:48:17.061 : :Chapter 10
00:56:24.339 : :Chapter 11
01:03:47.490 : :Chapter 12
01:09:16.486 : :Chapter 13
01:14:17.078 : :Chapter 14
01:19:04.615 : :Chapter 15
01:24:10.587 : :Chapter 16
01:31:51.923 : :Chapter 17
01:36:00.588 : :Chapter 18
01:40:03.247 : :Chapter 19
01:46:51.947 : :Chapter 20
Релиз от:
[Profile] [PM]
Display posts from previous:    

The time now is: Today 06:51

All times are GMT



You cannot post new topics in this forum
You cannot reply to topics in this forum
You cannot edit your posts in this forum
You cannot delete your posts in this forum
You cannot vote in polls in this forum
You cannot attach files in this forum
You cannot download files in this forum