Yes - Relayer (Remixed by Steven Wilson) (2014) [FLAC|Lossless]<Progressive Rock>

 
Автор Сообщение

sergej644 ®

Пол:

Стаж: 4 года 11 месяцев

Сообщений: 6040

Откуда: Soviet Union



Награды: Нет

Торрент-статистика

Создавать темы 22-Ноя-2014 17:39

[Цитировать]

-Yes - Relayer (Remixed by Steven Wilson) (2014)- Дата: 3 Nov 2014
Жанр: Progressive Rock
Лейбл: Imports
Продолжительность: 00:48:13
Кодек: FLAC
Битрейт: Lossless
Тип рипа: tracks + .cue
Треклист:
01. The Gates of Delirium (21:58)
02. Sound Chaser (9:30)
03. To Be Over (9:17)
Bonus tracks (CD only)
04. Soon (Single Edit) (4:13)
05. Sound Chaser (Single Edit) (3:14)

ЕАС - log&#58;

X Lossless Decoder version 20140504 (147.0)
XLD extraction logfile from 2014-10-29 21:37:06 -0400
Yes / Relayer [2014 Mix]
Used drive : HL-DT-ST DVD-RW GH41N (revision PQ04)
Media type : Pressed CD
Ripper mode             : XLD Secure Ripper
Disable audio cache     : OK for the drive with a cache less than 1375KiB
Make use of C2 pointers : NO
Read offset correction  : 667
Max retry count         : 20
Gap status              : Analyzed, Appended (except HTOA)
TOC of the extracted CD
     Track |   Start  |  Length  | Start sector | End sector
    ---------------------------------------------------------
        1  | 00:00:00 | 21:58:38 |         0    |    98887
        2  | 21:58:38 | 09:30:00 |     98888    |   141637
        3  | 31:28:38 | 09:17:00 |    141638    |   183412
        4  | 40:45:38 | 04:13:45 |    183413    |   202432
        5  | 44:59:08 | 03:14:64 |    202433    |   217046
AccurateRip Summary
    Disc not found in AccurateRip DB.
All Tracks
    Album gain               : -4.50 dB
    Peak                     : 0.999969
    Statistics
        Read error                           : 0
        Jitter error (maybe fixed)           : 0
        Retry sector count                   : 0
        Damaged sector count                 : 0
Track 01
    Filename : /Volumes/Stantz/Rip/Yes - 1974 - Relayer [2014 Mix] [FLAC]/01 The Gates Of Delirium.flac
               /Volumes/Stantz/Rip/Yes - 1974 - Relayer [2014 Mix] [V0]/01 The Gates Of Delirium.mp3
               /Volumes/Stantz/Rip/Yes - 1974 - Relayer [2014 Mix] [V2]/01 The Gates Of Delirium.mp3
               /Volumes/Stantz/Rip/Yes - 1974 - Relayer [2014 Mix] [320]/01 The Gates Of Delirium.mp3
    Pre-gap length : 00:02:00
    Track gain               : -4.32 dB
    Peak                     : 0.999969
    CRC32 hash (test run)    : 20CA620A
    CRC32 hash               : 20CA620A
    CRC32 hash (skip zero)   : B167B6CE
    AccurateRip v1 signature : 26A2E481
    AccurateRip v2 signature : 4F156C18
        ->Track not present in AccurateRip database.
    Statistics
        Read error                           : 0
        Jitter error (maybe fixed)           : 0
        Retry sector count                   : 0
        Damaged sector count                 : 0
Track 02
    Filename : /Volumes/Stantz/Rip/Yes - 1974 - Relayer [2014 Mix] [FLAC]/02 Sound Chaser.flac
               /Volumes/Stantz/Rip/Yes - 1974 - Relayer [2014 Mix] [V0]/02 Sound Chaser.mp3
               /Volumes/Stantz/Rip/Yes - 1974 - Relayer [2014 Mix] [V2]/02 Sound Chaser.mp3
               /Volumes/Stantz/Rip/Yes - 1974 - Relayer [2014 Mix] [320]/02 Sound Chaser.mp3
    Track gain               : -4.19 dB
    Peak                     : 0.999969
    CRC32 hash (test run)    : 07A825F4
    CRC32 hash               : 07A825F4
    CRC32 hash (skip zero)   : BCB33CE3
    AccurateRip v1 signature : 7A2FF887
    AccurateRip v2 signature : 70B543DD
        ->Track not present in AccurateRip database.
    Statistics
        Read error                           : 0
        Jitter error (maybe fixed)           : 0
        Retry sector count                   : 0
        Damaged sector count                 : 0
Track 03
    Filename : /Volumes/Stantz/Rip/Yes - 1974 - Relayer [2014 Mix] [FLAC]/03 To Be Over.flac
               /Volumes/Stantz/Rip/Yes - 1974 - Relayer [2014 Mix] [V0]/03 To Be Over.mp3
               /Volumes/Stantz/Rip/Yes - 1974 - Relayer [2014 Mix] [V2]/03 To Be Over.mp3
               /Volumes/Stantz/Rip/Yes - 1974 - Relayer [2014 Mix] [320]/03 To Be Over.mp3
    Track gain               : -5.35 dB
    Peak                     : 0.999969
    CRC32 hash (test run)    : 00040099
    CRC32 hash               : 00040099
    CRC32 hash (skip zero)   : FC84B18B
    AccurateRip v1 signature : 07DC4E5C
    AccurateRip v2 signature : 4B90CB76
        ->Track not present in AccurateRip database.
    Statistics
        Read error                           : 0
        Jitter error (maybe fixed)           : 0
        Retry sector count                   : 0
        Damaged sector count                 : 0
Track 04
    Filename : /Volumes/Stantz/Rip/Yes - 1974 - Relayer [2014 Mix] [FLAC]/04 Soon (Single Edit).flac
               /Volumes/Stantz/Rip/Yes - 1974 - Relayer [2014 Mix] [V0]/04 Soon (Single Edit).mp3
               /Volumes/Stantz/Rip/Yes - 1974 - Relayer [2014 Mix] [V2]/04 Soon (Single Edit).mp3
               /Volumes/Stantz/Rip/Yes - 1974 - Relayer [2014 Mix] [320]/04 Soon (Single Edit).mp3
    Pre-gap length : 00:05:00
    Track gain               : -4.14 dB
    Peak                     : 0.803741
    CRC32 hash (test run)    : 29B6A624
    CRC32 hash               : 29B6A624
    CRC32 hash (skip zero)   : F0359859
    AccurateRip v1 signature : 781510C9
    AccurateRip v2 signature : DF090C41
        ->Track not present in AccurateRip database.
    Statistics
        Read error                           : 0
        Jitter error (maybe fixed)           : 0
        Retry sector count                   : 0
        Damaged sector count                 : 0
Track 05
    Filename : /Volumes/Stantz/Rip/Yes - 1974 - Relayer [2014 Mix] [FLAC]/05 Sound Chaser (Single Edit).flac
               /Volumes/Stantz/Rip/Yes - 1974 - Relayer [2014 Mix] [V0]/05 Sound Chaser (Single Edit).mp3
               /Volumes/Stantz/Rip/Yes - 1974 - Relayer [2014 Mix] [V2]/05 Sound Chaser (Single Edit).mp3
               /Volumes/Stantz/Rip/Yes - 1974 - Relayer [2014 Mix] [320]/05 Sound Chaser (Single Edit).mp3
    Track gain               : -1.36 dB
    Peak                     : 0.597992
    CRC32 hash (test run)    : AD7CF915
    CRC32 hash               : AD7CF915
    CRC32 hash (skip zero)   : 3B7D8E18
    AccurateRip v1 signature : BD6BBDD1
    AccurateRip v2 signature : BBA099E7
        ->Track not present in AccurateRip database.
    Statistics
        Read error                           : 0
        Jitter error (maybe fixed)           : 0
        Retry sector count                   : 0
        Damaged sector count                 : 0
No errors occurred
End of status report
-----BEGIN XLD SIGNATURE-----
CmGPaOefUD1kBbbF_EqY_8H77XvgRjOT26Tp7Pm3vyFtFobhJZEVFGeL2ct0EV6hhBxzVXh5._P02PKuLEiVkKeFEu2SaGRXQcK396u
-----END XLD SIGNATURE-----

auCDtect - log&#58;

-----------------------
DON'T MODIFY THIS FILE
-----------------------
PERFORMER: auCDtect Task Manager, ver. 1.5.1RC6 build 1.5.1.7
Copyright (c) 2008-2010 y-soft. All rights reserved
http://y-soft.org
ANALYZER: auCDtect: CD records authenticity detector, version 0.8.2
Copyright (c) 2004 Oleg Berngardt. All rights reserved.
Copyright (c) 2004 Alexander Djourik. All rights reserved.
FILE: 05 Sound Chaser (Single Edit).flac
  Size: 21939522 Hash: 5123052C977B060666FA88323A6E1AEB Accuracy: -m0
  Conclusion: CDDA 100%
  Signature: 03B7B9234E4B3D5E8F0E784A07BFD9ED8C05C37E
FILE: 04 Soon (Single Edit).flac
  Size: 24990066 Hash: 98FBC6898C760B954CB90851BF631D02 Accuracy: -m0
  Conclusion: CDDA 100%
  Signature: 5D1B716A4E183BBFD041A88EBB1C90254A0D0860
FILE: 03 To Be Over.flac
  Size: 51621546 Hash: C858C18A5118AA84666A4AA671AC1AFD Accuracy: -m0
  Conclusion: CDDA 100%
  Signature: 40019771BCF580EA494CCA5E5BB2E8B7B3281C5B
FILE: 02 Sound Chaser.flac
  Size: 55287209 Hash: B361F61EBCB1702958FFCBCC4255CB95 Accuracy: -m0
  Conclusion: CDDA 100%
  Signature: 9E53129DD5D526207D15AFB742D3FA305BE4915A
FILE: 01 The Gates Of Delirium.flac
  Size: 135892967 Hash: 045606BB9CD1AD49A423A88CB46EC061 Accuracy: -m0
  Conclusion: CDDA 100%
  Signature: CDBDAB1C857CA985BB4D2ABF14F39606C9957399

Дополнительная информация&#58;

Jon Anderson - vocals
Chris Squire - bass and vocals
Patrick Moraz - keyboards
Alan White - drums
Steve Howe - guitars and vocals
[Профиль] [ЛС]
Кто просматривает тему:

Показать сообщения:    

Текущее время: Сегодня 02:38

Часовой пояс: GMT



Вы не можете начинать темы
Вы не можете отвечать на сообщения
Вы не можете редактировать свои сообщения
Вы не можете удалять свои сообщения
Вы не можете голосовать в опросах
Вы не можете прикреплять файлы к сообщениям
Вы не можете скачивать файлы