(Symphonic Gothic Metal) Xandria - Sacrificium (Limited Edition)(2CD) - 2014, FLAC (image+.cue), lossless

 
Автор Сообщение

sergej644 ®

Пол:

Стаж: 4 года 11 месяцев

Сообщений: 6045

Откуда: Soviet Union



Награды: Нет

Торрент-статистика

Создавать темы 03-Ноя-2014 19:51

[Цитировать]

--Xandria / Sacrificium (Limited Edition)
Жанр: Symphonic Gothic Metal
Носитель: CD
Страна-производитель диска: Germany
Год издания: 2014
Издатель (лейбл): Napalm Records Handels GmbH
Номер по каталогу: NPR 534
Страна: Germany
Аудиокодек: FLAC (*.flac)
Тип рипа: image+.cue
Битрейт аудио: lossless
Продолжительность: 66:37/71:33
Источник (релизер): My CD
Наличие сканов в содержимом раздачи: да

CD 1

01. Sacrificium
02. Nightfall
03. Dreamkeeper
04. Stardust
05. The Undiscovered Land
06. Betrayer
07. Until The End
08. Come With Me
09. Little Red Relish
10. Our Neverworld
11. Temple Of Hate
12. Sweet Atonement

Лог создания рипа

Exact Audio Copy V1.0 beta 3 from 29. August 2011
EAC extraction logfile from 1. May 2014, 13:27
Xandria / Sacrificium (Limited Edition) CD 1
Used drive  : HP      DVD Writer 1170d   Adapter: 0  ID: 0
Read mode               : Secure
Utilize accurate stream : Yes
Defeat audio cache      : Yes
Make use of C2 pointers : No
Read offset correction                      : 6
Overread into Lead-In and Lead-Out          : No
Fill up missing offset samples with silence : Yes
Delete leading and trailing silent blocks   : No
Null samples used in CRC calculations       : Yes
Used interface                              : Native Win32 interface for Win NT & 2000
Used output format              : User Defined Encoder
Selected bitrate                : 768 kBit/s
Quality                         : High
Add ID3 tag                     : No
Command line compressor         : C:\Program Files (x86)\Exact Audio Copy\FLAC\FLAC.EXE
Additional command line options : -V -8 -T "Date=%year%" -T "Genre=%genre%" -T"COMMENT=Ripped by Ungern666" -8 -V %source%
TOC of the extracted CD
     Track |   Start  |  Length  | Start sector | End sector
    ---------------------------------------------------------
        1  |  0:00.00 | 10:07.05 |         0    |    45529
        2  | 10:07.05 |  3:56.05 |     45530    |    63234
        3  | 14:03.10 |  4:36.17 |     63235    |    83951
        4  | 18:39.27 |  5:32.51 |     83952    |   108902
        5  | 24:12.03 |  7:22.22 |    108903    |   142074
        6  | 31:34.25 |  6:06.36 |    142075    |   169560
        7  | 37:40.61 |  5:39.00 |    169561    |   194985
        8  | 43:19.61 |  4:56.25 |    194986    |   217210
        9  | 48:16.11 |  4:32.30 |    217211    |   237640
       10  | 52:48.41 |  3:45.47 |    237641    |   254562
       11  | 56:34.13 |  5:49.72 |    254563    |   280809
       12  | 62:24.10 |  4:13.55 |    280810    |   299839
Range status and errors
Selected range
     Filename C:\EAC\Ungern666\Xandria - Sacrificium (Limited Edition) CD 1.wav
     Peak level 100.0 %
     Extraction speed 8.0 X
     Range quality 100.0 %
     Test CRC 4488ED1E
     Copy CRC 4488ED1E
     Copy OK
No errors occurred
AccurateRip summary
Track  1  not present in database
Track  2  not present in database
Track  3  not present in database
Track  4  not present in database
Track  5  not present in database
Track  6  not present in database
Track  7  not present in database
Track  8  not present in database
Track  9  not present in database
Track 10  not present in database
Track 11  not present in database
Track 12  not present in database
None of the tracks are present in the AccurateRip database
End of status report
==== Log checksum 370DD241E5DCED6E4B408CAD4D5DAE3C279B55D8A7D9157F65627C2FDF475666 ====

CD 2

01. The Watcher
02. Sacrificium
03. Nightfall
04. Dreamkeeper
05. Stardust
06. The Undiscovered Land
07. Betrayer
08. Until The End
09. Come With Me
10. Little Red Relish
11. Our Neverworld
12. Temple Of Hate
13. Sweet Atonement
Tracks 02-13 - Instrumental

Лог создания рипа

Exact Audio Copy V1.0 beta 3 from 29. August 2011
EAC extraction logfile from 1. May 2014, 13:52
Xandria / Sacrificium (Limited Edition) CD 2
Used drive : HP DVD Writer 1170d Adapter: 0 ID: 0
Read mode : Secure
Utilize accurate stream : Yes
Defeat audio cache : Yes
Make use of C2 pointers : No
Read offset correction : 6
Overread into Lead-In and Lead-Out : No
Fill up missing offset samples with silence : Yes
Delete leading and trailing silent blocks : No
Null samples used in CRC calculations : Yes
Used interface : Native Win32 interface for Win NT & 2000
Used output format : User Defined Encoder
Selected bitrate : 768 kBit/s
Quality : High
Add ID3 tag : No
Command line compressor : C:\Program Files (x86)\Exact Audio Copy\FLAC\FLAC.EXE
Additional command line options : -V -8 -T "Date=%year%" -T "Genre=%genre%" -T"COMMENT=Ripped by Ungern666" -8 -V %source%
TOC of the extracted CD
Track | Start | Length | Start sector | End sector
---------------------------------------------------------
1 | 0:00.00 | 4:48.62 | 0 | 21661
2 | 4:48.62 | 10:04.47 | 21662 | 67008
3 | 14:53.34 | 3:56.46 | 67009 | 84754
4 | 18:50.05 | 4:38.03 | 84755 | 105607
5 | 23:28.08 | 5:33.30 | 105608 | 130612
6 | 29:01.38 | 7:23.29 | 130613 | 163866
7 | 36:24.67 | 6:06.62 | 163867 | 191378
8 | 42:31.54 | 5:39.11 | 191379 | 216814
9 | 48:10.65 | 4:57.21 | 216815 | 239110
10 | 53:08.11 | 4:34.29 | 239111 | 259689
11 | 57:42.40 | 3:46.00 | 259690 | 276639
12 | 61:28.40 | 5:51.21 | 276640 | 302985
13 | 67:19.61 | 4:13.55 | 302986 | 322015
Range status and errors
Selected range
Filename C:\EAC\Ungern666\Xandria - Sacrificium (Limited Edition) CD 2.wav
Peak level 100.0 %
Extraction speed 8.3 X
Range quality 100.0 %
Test CRC F9090FCE
Copy CRC F9090FCE
Copy OK
No errors occurred
AccurateRip summary
Track 1 not present in database
Track 2 not present in database
Track 3 not present in database
Track 4 not present in database
Track 5 not present in database
Track 6 not present in database
Track 7 not present in database
Track 8 not present in database
Track 9 not present in database
Track 10 not present in database
Track 11 not present in database
Track 12 not present in database
Track 13 not present in database
None of the tracks are present in the AccurateRip database
End of status report
==== Log checksum AEEE87CA6542A32C58FCBBFFEECC5B14FAA617E9B78EEEE2A459B4E0932DC832 ====
-

дополнительная информация:

Sacrificium — шестой студийный альбом немецкой симфо-метал-группы Xandria, выпущенный 2 мая 2014 года. Альбом вышел на лейбле Napalm Records.
На латыни слово sacrificium означает действие, связанное с чем-то сакральным, священным, в частности — жертвоприношение.
По словам участников группы, новый альбом «продолжит музыкальное направление» их предыдущего альбома, Neverworld’s End, но «принесёт людям ещё больше удовольствия».
Непосредственно перед записью альбома, группа распрощалась со своей солисткой Мануэлой Краллер, которая была в группе на протяжении трёх лет. Она была заменена Голландской певицей Дианой ван Гирсберген, которая так же является участницей группы Ex Libris. Эта запись так же является первой для басиста Стивена Вуссова в составе Xandria.
--
[Профиль] [ЛС]
Показать сообщения:    

Текущее время: Сегодня 00:17

Часовой пояс: GMT



Вы не можете начинать темы
Вы не можете отвечать на сообщения
Вы не можете редактировать свои сообщения
Вы не можете удалять свои сообщения
Вы не можете голосовать в опросах
Вы не можете прикреплять файлы к сообщениям
Вы не можете скачивать файлы