WTF! Какого черта? / N'importe qui (2014) DVDRip | D | Лицензия

 
Автор Сообщение

sergej644 ®

Пол:

Стаж: 4 года 11 месяцев

Сообщений: 6046

Откуда: Soviet Union



Награды: Нет

Торрент-статистика

Создавать темы 06-Сен-2014 15:56

[Цитировать]

--WTF! Какого черта? / N'importe qui Информация о фильме
Название: WTF! Какого черта?
Оригинальное название: N'importe qui
Год выхода: 2014
Жанр: Комедия
Режиссер: Рафаэль Фридман
В ролях: Реми Гайяр, Патрик Рейналь, Франк Брюно, Элбан Иванофф, Сильвен Катан, Грегори Нардела, Бриджитт Моати, Николь Феррони, Квентин Жодар
О фильме:
Реми Гайяр — реальный персонаж Всемирной сети, тролль, провокатор, самый популярный комик инета Европы. Полтора миллиарда просмотров и миллионы фанатов. Пришел день, и он решил остепениться: женился, устроился на работу на автостоянке, пообещал беременной жене, что тоже «уходит в декрет» и бросает свои шалости.
Но как заглушить талант и буйство фантазии?! Фанаты не могут допустить его ухода.
Гайяр возвращается!

Страна: Франция
Студия: Why Not Productions
Продолжительность: 01:17:33
Перевод: Профессиональный (полное дублирование) | Лицензия
Файл
Кодек: XviD
Качество: DVDRip
Видео: 720x400, 1206 kbps, 25 fps, 0,167 Bits/(Pixel*Frame)
Звук: MP3, 48 kHz, 2 ch, 128 kbps
Субтитры: Нет
Автор рипа: Bathory

Скриншоты

MI

General
Complete name : D:WTF.2014.DVDRip_by_Bathory.avi
Format : AVI
Format/Info : Audio Video Interleave
File size : 745 MiB
Duration : 1h 17mn
Overall bit rate : 1 343 Kbps
Writing application : VirtualDubMod 1.5.10.3 | www.virtualdub-fr.org || (build 2550/release)
Writing library : VirtualDubMod build 2550/release
Video
ID : 0
Format : MPEG-4 Visual
Format profile : Advanced Simple@L5
Format settings, BVOP : 1
Format settings, QPel : No
Format settings, GMC : No warppoints
Format settings, Matrix : Custom
Codec ID : XVID
Codec ID/Hint : XviD
Duration : 1h 17mn
Bit rate : 1 206 Kbps
Width : 720 pixels
Height : 400 pixels
Display aspect ratio : 16:9
Frame rate : 25.000 fps
Color space : YUV
Chroma subsampling : 4:2:0
Bit depth : 8 bits
Scan type : Progressive
Compression mode : Lossy
Bits/(Pixel*Frame) : 0.167
Stream size : 669 MiB (90%)
Writing library : XviD 73
Audio
ID : 1
Format : MPEG Audio
Format version : Version 1
Format profile : Layer 3
Mode : Joint stereo
Mode extension : MS Stereo
Codec ID : 55
Codec ID/Hint : MP3
Duration : 1h 17mn
Bit rate mode : Constant
Bit rate : 128 Kbps
Channel(s) : 2 channels
Sampling rate : 48.0 KHz
Compression mode : Lossy
Stream size : 71.0 MiB (10%)
Alignment : Aligned on interleaves
Interleave, duration : 40 ms (1.00 video frame)
Interleave, preload duration : 504 ms
Writing library : LAME3.99r
Encoding settings : -m j -V 4 -q 2 -lowpass 17 -b 128
[Профиль] [ЛС]
Кто просматривает тему:

Показать сообщения:    

Текущее время: Сегодня 16:54

Часовой пояс: GMT



Вы не можете начинать темы
Вы не можете отвечать на сообщения
Вы не можете редактировать свои сообщения
Вы не можете удалять свои сообщения
Вы не можете голосовать в опросах
Вы не можете прикреплять файлы к сообщениям
Вы не можете скачивать файлы