(Heavy Metal) Wolfpakk - Rise Of The Animal (2015) [FLAC , (image+cue), Lossless]

 
Автор Сообщение

sergej644 ®

Пол:

Стаж: 4 года 11 месяцев

Сообщений: 6045

Откуда: Soviet Union



Награды: Нет

Торрент-статистика

Создавать темы 17-Мар-2015 00:00

[Цитировать]

-Wolfpakk - Rise Of The Animal (2015)-Год: 2015
Жанр: Heavy Metal
Продолжительность: 00:58:56
Лейбл: Fono
№ по каталогу: FO1131CD
Страна: Germany
Кодек: FLAC
Тип рипа: image+.cue
Битрейт: Lossless


01. Rider of the Storm 04:51
02. Sock It to Me 04:23
03. Monkey on Your Back 04:48
04. Highlands 06:22
05. Black Wolf 05:16
06. Somewhere Beyond 05:15
07. Running Out of Time 03:54
08. Grizzly Man 05:28
09. High Roller 04:40
10. Rise of the Animal 08:42
11. Universe 05:10
-

Отчёт ЕАС:

Exact Audio Copy V1.0 beta 3 from 29. August 2011
EAC extraction logfile from 14. March 2015, 8:12
Wolfpakk / Rise Of The Animal (FO1131CD)
Used drive  : PLEXTOR BD-R   PX-B940SA   Adapter: 5  ID: 0
Read mode               : Secure
Utilize accurate stream : Yes
Defeat audio cache      : Yes
Make use of C2 pointers : No
Read offset correction                      : 667
Overread into Lead-In and Lead-Out          : No
Fill up missing offset samples with silence : Yes
Delete leading and trailing silent blocks   : No
Null samples used in CRC calculations       : Yes
Used interface                              : Installed external ASPI interface
Used output format              : User Defined Encoder
Selected bitrate                : 128 kBit/s
Quality                         : High
Add ID3 tag                     : Yes
Command line compressor         : G:\Program Files (x86)\Exact Audio Copy\Flac\flac.exe
Additional command line options : -V -8 -T "Date=%year%" -T "Genre=%genre%" %source%
TOC of the extracted CD
     Track |   Start  |  Length  | Start sector | End sector
    ---------------------------------------------------------
        1  |  0:00.00 |  4:52.69 |         0    |    21968
        2  |  4:52.69 |  4:25.05 |     21969    |    41848
        3  |  9:17.74 |  4:50.54 |     41849    |    63652
        4  | 14:08.53 |  6:24.44 |     63653    |    92496
        5  | 20:33.22 |  5:17.49 |     92497    |   116320
        6  | 25:50.71 |  5:17.34 |    116321    |   140129
        7  | 31:08.30 |  3:56.65 |    140130    |   157894
        8  | 35:05.20 |  5:30.65 |    157895    |   182709
        9  | 40:36.10 |  4:42.01 |    182710    |   203860
       10  | 45:18.11 |  8:44.32 |    203861    |   243192
       11  | 54:02.43 |  5:10.21 |    243193    |   266463
       12  | 61:44.64 |  9:55.38 |    277864    |   322526
Range status and errors
Selected range
     Filename D:\MUSIC\Wolfpakk - Rise Of The Animal (FO1131CD).wav
     Peak level 97.7 %
     Extraction speed 1.8 X
     Range quality 100.0 %
     Test CRC 174A13DA
     Copy CRC 174A13DA
     Copy OK
No errors occurred
AccurateRip summary
Track  1  not present in database
Track  2  not present in database
Track  3  not present in database
Track  4  not present in database
Track  5  not present in database
Track  6  not present in database
Track  7  not present in database
Track  8  not present in database
Track  9  not present in database
Track 10  not present in database
Track 11  not present in database
None of the tracks are present in the AccurateRip database
End of status report
==== Log checksum 123BAD79669DA132D79C0275C981A2ED3B5FE663F6865F9221FAD126AC91B528 ====

Отчёт auCDtect Task manager:

-----------------------
DON'T MODIFY THIS FILE
-----------------------
PERFORMER: auCDtect Task Manager, ver. 1.6.0 RC1 build 1.6.0.1
Copyright (c) 2008-2010 y-soft. All rights reserved
http://y-soft.org
ANALYZER: auCDtect: CD records authenticity detector, version 0.8.2
Copyright (c) 2004 Oleg Berngardt. All rights reserved.
Copyright (c) 2004 Alexander Djourik. All rights reserved.
FILE: Wolfpakk - Rise Of The Animal (FO1131CD).flac
  Size: 452490391 Hash: D4E27C96D8A7AE9A1494017588DD6D71 Accuracy: -m0
  Conclusion: CDDA 100%
  Signature: 5816500DF56D9852F5FE69BA6221AAFFC53D2FA1
--
[Профиль] [ЛС]
Показать сообщения:    

Текущее время: Сегодня 11:54

Часовой пояс: GMT



Вы не можете начинать темы
Вы не можете отвечать на сообщения
Вы не можете редактировать свои сообщения
Вы не можете удалять свои сообщения
Вы не можете голосовать в опросах
Вы не можете прикреплять файлы к сообщениям
Вы не можете скачивать файлы