(Heavy Metal) Witchbound - Tarot's Legacy - 2015 [FLAC, image+.cue, lossless]

 
Автор Сообщение

sergej644 ®

Пол:

Стаж: 4 года 11 месяцев

Сообщений: 6046

Откуда: Soviet Union



Награды: Нет

Торрент-статистика

Создавать темы 20-Май-2015 15:18

[Цитировать]

-Witchbound / Tarot's Legacy-- Год издания: 2015
Страна: Germany
Жанр: Heavy Metal
Продолжительность: 00:48:00-Лейбл издания: El Puerto Records
Тип альбома: album
Страна-выпуска диска: EU
Номер по каталогу: EPR001-2
Формат: FLAC
Битрейт аудио: lossless
Тип рипа: image+.cue
Наличие сканов в содержимом раздачи: да
--

Трэклист

01. Introduction (00:09)
02. Dance Into The Fire (03:36)
03. Mauritania (04:16)
04. Jester's Day (03:04)
05. To Search For The Grail (05:15)
06. Holy Ground (05:11)
07. Keep The Pyre Burning (04:29)
08. Petite Bouree (00:53)
09. Mandrake's Fire (03:50)
10. Wrath Of The Northmen (00:52)
11. Die Sword In Hand (03:56)
12. Sands Of Time (04:22)
13. Stranded (04:07)
14. Trail Of Stars (04:07)
--

Лог создания рипа

Exact Audio Copy V1.0 beta 3 from 29. August 2011
EAC extraction logfile from 15. May 2015, 19:15
Witchbound / Tarot's Legacy
Used drive  : ATAPI   iHAS122   W   Adapter: 2  ID: 0
Read mode               : Secure
Utilize accurate stream : Yes
Defeat audio cache      : Yes
Make use of C2 pointers : No
Read offset correction                      : 48
Overread into Lead-In and Lead-Out          : No
Fill up missing offset samples with silence : Yes
Delete leading and trailing silent blocks   : No
Null samples used in CRC calculations       : Yes
Used interface                              : Installed external ASPI interface
Used output format              : User Defined Encoder
Selected bitrate                : 1024 kBit/s
Quality                         : High
Add ID3 tag                     : No
Command line compressor         : C:\Program Files\FLAC\flac.exe
Additional command line options : -V -8 -T "Date=%year%" -T "Genre=%genre%" -T"COMMENT=Ripped by  Ilijan" -8 -V %source%
TOC of the extracted CD
     Track |   Start  |  Length  | Start sector | End sector
    ---------------------------------------------------------
        1  |  0:00.00 |  0:08.65 |         0    |      664
        2  |  0:08.65 |  3:35.10 |       665    |    16799
        3  |  3:44.00 |  4:15.51 |     16800    |    35975
        4  |  7:59.51 |  3:03.42 |     35976    |    49742
        5  | 11:03.18 |  5:14.39 |     49743    |    73331
        6  | 16:17.57 |  5:10.64 |     73332    |    96645
        7  | 21:28.46 |  4:28.42 |     96646    |   116787
        8  | 25:57.13 |  0:52.23 |    116788    |   120710
        9  | 26:49.36 |  3:49.24 |    120711    |   137909
       10  | 30:38.60 |  0:51.10 |    137910    |   141744
       11  | 31:29.70 |  3:55.14 |    141745    |   159383
       12  | 35:25.09 |  4:21.31 |    159384    |   178989
       13  | 39:46.40 |  4:06.73 |    178990    |   197512
       14  | 43:53.38 |  4:06.14 |    197513    |   215976
Range status and errors
Selected range
     Filename D:\ИЛИЯН\Witchbound - Tarot's Legacy.wav
     Peak level 96.6 %
     Extraction speed 3.8 X
     Range quality 100.0 %
     Test CRC 22FA2468
     Copy CRC 22FA2468
     Copy OK
No errors occurred
AccurateRip summary
Track  1  not present in database
Track  2  not present in database
Track  3  not present in database
Track  4  not present in database
Track  5  not present in database
Track  6  not present in database
Track  7  not present in database
Track  8  not present in database
Track  9  not present in database
Track 10  not present in database
Track 11  not present in database
Track 12  not present in database
Track 13  not present in database
Track 14  not present in database
None of the tracks are present in the AccurateRip database
End of status report
---- CUETools DB Plugin V2.1.3
[CTDB TOCID: JWFnLYocylzulm2jM_17IWAhrXw-] found, Submit result: JWFnLYocylzulm2jM_17IWAhrXw- has been confirmed
[09fd19d6] (1/1) Accurately ripped

Индексная карта (non-compilant .cue)

REM GENRE "Heavy/Power Metal"
REM DATE 2015
REM DISCID BE0B3F0E
REM COMMENT "ExactAudioCopy v1.0b3"
PERFORMER "Witchbound"
TITLE "Tarot's Legacy"
FILE "Witchbound - Tarot's Legacy.flac" WAVE
  TRACK 01 AUDIO
    TITLE "Introduction"
    PERFORMER "Witchbound"
    INDEX 01 00:00:00
  TRACK 02 AUDIO
    TITLE "Dance Into The Fire"
    PERFORMER "Witchbound"
    INDEX 01 00:08:65
  TRACK 03 AUDIO
    TITLE "Mauritania"
    PERFORMER "Witchbound"
    INDEX 01 03:44:00
  TRACK 04 AUDIO
    TITLE "Jester's Day"
    PERFORMER "Witchbound"
    INDEX 01 07:59:51
  TRACK 05 AUDIO
    TITLE "To Search For The Grail"
    PERFORMER "Witchbound"
    INDEX 00 11:02:34
    INDEX 01 11:03:18
  TRACK 06 AUDIO
    TITLE "Holy Ground"
    PERFORMER "Witchbound"
    INDEX 01 16:17:57
  TRACK 07 AUDIO
    TITLE "Keep The Pyre Burning"
    PERFORMER "Witchbound"
    INDEX 01 21:28:46
  TRACK 08 AUDIO
    TITLE "Petite Bouree"
    PERFORMER "Witchbound"
    INDEX 01 25:57:13
  TRACK 09 AUDIO
    TITLE "Mandrake's Fire"
    PERFORMER "Witchbound"
    INDEX 01 26:49:36
  TRACK 10 AUDIO
    TITLE "Wrath Of The Northmen"
    PERFORMER "Witchbound"
    INDEX 01 30:38:60
  TRACK 11 AUDIO
    TITLE "Die Sword In Hand"
    PERFORMER "Witchbound"
    INDEX 01 31:29:70
  TRACK 12 AUDIO
    TITLE "Sands Of Time"
    PERFORMER "Witchbound"
    INDEX 00 35:23:55
    INDEX 01 35:25:09
  TRACK 13 AUDIO
    TITLE "Stranded"
    PERFORMER "Witchbound"
    INDEX 01 39:46:40
  TRACK 14 AUDIO
    TITLE "Trail Of Stars"
    PERFORMER "Witchbound"
    INDEX 01 43:53:38

Лог Audiochecker

AUDIOCHECKER v2.0 beta (build 457) - by Dester - opdester@freemail.hu
~~~~~~~~~~~~~~~~~~~~~~~~~~~~~~~~~~
Started at: среда, 20. 05. 2015. - 17:08.35
1 file found
1 -===- D:\Torrent files\Witchbound 2015 - Tarot's Legacy (EAC-FLAC)\Witchbound - Tarot's Legacy.flac
  Extracted successfully
  Conclusion: this track is CDDA with probability 100%
  Tempfile successfully deleted.
Finished at: среда, 20. 05. 2015. - 17:10.52 (operation time: 0:02.17)

Скриншот спектра частот

--Не забываем говорить
[Профиль] [ЛС]
Показать сообщения:    

Текущее время: Сегодня 06:24

Часовой пояс: GMT



Вы не можете начинать темы
Вы не можете отвечать на сообщения
Вы не можете редактировать свои сообщения
Вы не можете удалять свои сообщения
Вы не можете голосовать в опросах
Вы не можете прикреплять файлы к сообщениям
Вы не можете скачивать файлы