(Hard Rock) Wishbone Ash - Just Testing - 1980 (Remaster 2010) [FLAC, image+.cue, lossless]

 
Автор Сообщение

sergej644 ®

Пол:

Стаж: 4 года 11 месяцев

Сообщений: 6046

Откуда: Soviet Union



Награды: Нет

Торрент-статистика

Создавать темы 24-Май-2015 15:34

[Цитировать]

-Wishbone Ash / Just Testing-- Год издания: 1980 (Rem. 2010)
Страна: UK
Жанр: Hard Rock
Продолжительность: 00:38:03-Лейбл издания: Universal Music Company
Страна-выпуска диска: Japan
Номер по каталогу: UICY - 94495
Формат: FLAC
Битрейт аудио: lossless
Тип рипа: image+.cue
Наличие сканов в содержимом раздачи: да
---

Трэклист

01.Living Proof (05:45)
02.Haunting Me (04:35)
03.Insomnia (05:10)
04.Helpless (04:06)
05.Pay The Price (03:34)
06.New Rising Star (04:00)
07.Master Of Disguise (04:26)
08.Life Line (06:31)

Лог создания рипа

Exact Audio Copy V1.0 beta 1 from 15. November 2010
EAC extraction logfile from 12. January 2015, 15:37
Wishbone Ash / Just Testing
Used drive  : MATSHITADVD-RAM UJ8A0AS   Adapter: 0  ID: 1
Read mode               : Secure
Utilize accurate stream : Yes
Defeat audio cache      : Yes
Make use of C2 pointers : No
Read offset correction                      : 102
Overread into Lead-In and Lead-Out          : No
Fill up missing offset samples with silence : Yes
Delete leading and trailing silent blocks   : No
Null samples used in CRC calculations       : Yes
Used interface                              : Native Win32 interface for Win NT & 2000
Used output format : Internal WAV Routines
Sample format      : 44.100 Hz; 16 Bit; Stereo
TOC of the extracted CD
     Track |   Start  |  Length  | Start sector | End sector
    ---------------------------------------------------------
        1  |  0:00.00 |  5:44.04 |         0    |    25803
        2  |  5:44.04 |  4:34.25 |     25804    |    46378
        3  | 10:18.29 |  5:09.54 |     46379    |    69607
        4  | 15:28.08 |  4:05.09 |     69608    |    87991
        5  | 19:33.17 |  3:33.61 |     87992    |   104027
        6  | 23:07.03 |  3:59.26 |    104028    |   121978
        7  | 27:06.29 |  4:25.58 |    121979    |   141911
        8  | 31:32.12 |  6:30.50 |    141912    |   171211
Range status and errors
Selected range
     Filename C:\Users\Alex\Music\Wishbone Ash - Just Testing.wav
     Peak level 99.9 %
     Extraction speed 0.2 X
     Range quality 100.0 %
     Test CRC 448DC52B
     Copy CRC 448DC52B
     Copy OK
No errors occurred
AccurateRip summary
Track  1  accurately ripped (confidence 2)  [61238448]
Track  2  accurately ripped (confidence 2)  [1D411BE7]
Track  3  accurately ripped (confidence 2)  [62801DF0]
Track  4  accurately ripped (confidence 2)  [7E02791C]
Track  5  accurately ripped (confidence 2)  [F3F20EE4]
Track  6  accurately ripped (confidence 2)  [C27EBABF]
Track  7  accurately ripped (confidence 2)  [8062EF8B]
Track  8  accurately ripped (confidence 2)  [16F5F99D]
All tracks accurately ripped
End of status report

Индексная карта (non-compilant .cue)

REM GENRE Rock
REM DATE 1980
REM DISCID 6D08EA08
REM COMMENT "ExactAudioCopy v1.0b1"
PERFORMER "Wishbone Ash"
TITLE "Just Testing"
FILE "Wishbone Ash - Just Testing.wav" WAVE
  TRACK 01 AUDIO
    TITLE "Living Proof"
    PERFORMER "Wishbone Ash"
    INDEX 01 00:00:00
  TRACK 02 AUDIO
    TITLE "Haunting Me"
    PERFORMER "Wishbone Ash"
    INDEX 01 05:44:04
  TRACK 03 AUDIO
    TITLE "Insomnia"
    PERFORMER "Wishbone Ash"
    INDEX 01 10:18:29
  TRACK 04 AUDIO
    TITLE "Helpless"
    PERFORMER "Wishbone Ash"
    INDEX 01 15:28:08
  TRACK 05 AUDIO
    TITLE "Pay The Price"
    PERFORMER "Wishbone Ash"
    INDEX 00 19:31:30
    INDEX 01 19:33:17
  TRACK 06 AUDIO
    TITLE "New Rising Star"
    PERFORMER "Wishbone Ash"
    INDEX 01 23:07:03
  TRACK 07 AUDIO
    TITLE "Master Of Disguise"
    PERFORMER "Wishbone Ash"
    INDEX 01 27:06:29
  TRACK 08 AUDIO
    TITLE "Life Line"
    PERFORMER "Wishbone Ash"
    INDEX 01 31:32:12

Лог Audiochecker

AUDIOCHECKER v2.0 beta (build 457) - by Dester - opdester@freemail.hu
~~~~~~~~~~~~~~~~~~~~~~~~~~~~~~~~~~
Started at: воскресенье, 24. 05. 2015. - 17:49.22
1 file found
1 -===- D:\Torrent files\Wishbone Ash - Just Testing (1980) [Japan - UICY-94495, 2010]\Wishbone Ash - Just Testing.flac
  Extracted successfully
  Conclusion: this track is CDDA with probability 100%
  Tempfile successfully deleted.
Finished at: воскресенье, 24. 05. 2015. - 17:51.12 (operation time: 0:01.50)

Скриншот спектра частот

--Не забываем говорить
[Профиль] [ЛС]
Показать сообщения:    

Текущее время: Сегодня 00:36

Часовой пояс: GMT



Вы не можете начинать темы
Вы не можете отвечать на сообщения
Вы не можете редактировать свои сообщения
Вы не можете удалять свои сообщения
Вы не можете голосовать в опросах
Вы не можете прикреплять файлы к сообщениям
Вы не можете скачивать файлы