Wish Key - Uno (2010) [FLAC|Lossless]<Italo-Disco>

 
Автор Сообщение

sergej644 ®

Пол:

Стаж: 4 года 11 месяцев

Сообщений: 6043

Откуда: Soviet Union



Награды: Нет

Торрент-статистика

Создавать темы 24-Дек-2014 22:40

[Цитировать]

-Wish Key - Uno (2010)- Год: 2010
Лейбл: ESonCD
Каталог #: 201002-2
Жанр: Italo-Disco
Продолжительность: 01:17:45
Кодек: FLAC
Битрейт: Lossless
Тип битрейта: image +.cue
Треклист:
01. Acumbacha
02. Make It Up
03. The Key Of Sunshine
04. No Woman No Cry
05. Last Summer
06. The One You Love
07. Life
08. Orient Express
09. Make It Up (Maxi Version)
10. Orient Express (Vocal)
11. Last Summer (Vocal Version)
12. Acumbacha (Vocal Version)
13. Easy Way (Vocal)
14. The One You Love (Instrumental)

Отчёт ЕАС&#58;

Exact Audio Copy V0.99 prebeta 5 from 4. May 2009
Отчёт EAC об извлечении, выполненном 1. сентября 2010, 19:02
Wish Key / Uno
Дисковод: Optiarc DVD RW AD-5200A Adapter: 0 ID: 0
Режим чтения : Достоверность
Использование точного потока : Да
Отключение кэша аудио : Да
Использование указателей C2 : Нет
Коррекция смещения при чтении : 48
Способность читать области Lead-in и Lead-out : Нет
Заполнение пропущенных сэмплов тишиной : Да
Удаление блоков с тишиной в начале и конце : Нет
При вычислениях CRC использовались нулевые сэмплы : Да
Интерфейс : Встроенный Win32-интерфейс для Win NT/2000
Выходной формат : Внутренние WAV-операции
Формат сэмплов : 44.100 Гц; 16 бит; стерео
TOC извлечённого CD
Трек | Старт | Длительность | Начальный сектор | Конечный сектор
---------------------------------------------------------------------
1 | 0:00.00 | 4:47.30 | 0 | 21554
2 | 4:47.30 | 4:23.07 | 21555 | 41286
3 | 9:10.37 | 4:28.07 | 41287 | 61393
4 | 13:38.44 | 4:40.47 | 61394 | 82440
5 | 18:19.16 | 4:55.59 | 82441 | 104624
6 | 23:15.00 | 6:02.74 | 104625 | 131848
7 | 29:17.74 | 4:05.02 | 131849 | 150225
8 | 33:23.01 | 4:49.38 | 150226 | 171938
9 | 38:12.39 | 6:11.40 | 171939 | 199803
10 | 44:24.04 | 7:03.11 | 199804 | 231539
11 | 51:27.15 | 6:51.35 | 231540 | 262399
12 | 58:18.50 | 6:13.32 | 262400 | 290406
13 | 64:32.07 | 6:06.01 | 290407 | 317857
14 | 70:38.08 | 7:07.19 | 317858 | 349901
Характеристики диапазона извлечения и сообщения об ошибках
Выбранный диапазон
Имя файла D:\All\Music\! Wish Key - Uno (ESonCD)\Wish Key - Uno.wav
Пиковый уровень 100.0 %
Качество диапазона 100.0 %
CRC теста CB3B2E5F
CRC копии CB3B2E5F
Копирование... OK
Ошибок не произошло
AccurateRip: сводка
Трек 1 нет в базе данных
Трек 2 нет в базе данных
Трек 3 нет в базе данных
Трек 4 нет в базе данных
Трек 5 нет в базе данных
Трек 6 нет в базе данных
Трек 7 нет в базе данных
Трек 8 нет в базе данных
Трек 9 нет в базе данных
Трек 10 нет в базе данных
Трек 11 нет в базе данных
Трек 12 нет в базе данных
Трек 13 нет в базе данных
Трек 14 нет в базе данных
Ни одного трека нет в базе AccurateRip
Конец отчёта

Отчёт auCDtect Task manager&#58;

-----------------------
DON'T MODIFY THIS FILE
-----------------------
PERFORMER: auCDtect Task Manager, ver. 1.5.1RC4 build 1.5.1.5
Copyright (c) 2008-2010 y-soft. All rights reserved
http://y-soft.org
ANALYZER: auCDtect: CD records authenticity detector, version 0.8.2
Copyright (c) 2004 Oleg Berngardt. All rights reserved.
Copyright (c) 2004 Alexander Djourik. All rights reserved.
FILE: Wish Key - Uno.flac
  Size: 554200742 Hash: DC55F1DCE9023F541150A10B6D59701C Accuracy: -m0
  Conclusion: CDDA 100%
  Signature: BC54DCBCD256416786C124F1814D07D46E9F1D06

Содержание индексной карты (.CUE&#41;&#58;

REM GENRE Italo-Disco
REM DATE 2010
REM DISCID C012390E
REM COMMENT "ExactAudioCopy v0.99pb5"
PERFORMER "Wish Key"
TITLE "Uno "
FILE "Wish Key - Uno.flac" WAVE
  TRACK 01 AUDIO
    TITLE "Acumbacha"
    PERFORMER "Wish Key"
    FLAGS DCP
    INDEX 01 00:00:00
  TRACK 02 AUDIO
    TITLE "Make It Up"
    PERFORMER "Wish Key"
    FLAGS DCP
    INDEX 01 04:47:30
  TRACK 03 AUDIO
    TITLE "The Key Of Sunshine"
    PERFORMER "Wish Key"
    FLAGS DCP
    INDEX 01 09:10:37
  TRACK 04 AUDIO
    TITLE "No Woman No Cry"
    PERFORMER "Wish Key"
    FLAGS DCP
    INDEX 01 13:38:44
  TRACK 05 AUDIO
    TITLE "Last Summer"
    PERFORMER "Wish Key"
    FLAGS DCP
    INDEX 01 18:19:16
  TRACK 06 AUDIO
    TITLE "The One You Love"
    PERFORMER "Wish Key"
    FLAGS DCP
    INDEX 01 23:15:00
  TRACK 07 AUDIO
    TITLE "Life"
    PERFORMER "Wish Key"
    FLAGS DCP
    INDEX 01 29:17:74
  TRACK 08 AUDIO
    TITLE "Orient Express"
    PERFORMER "Wish Key"
    FLAGS DCP
    INDEX 01 33:23:01
  TRACK 09 AUDIO
    TITLE "Make It Up (Maxi Version)"
    PERFORMER "Wish Key"
    FLAGS DCP
    INDEX 01 38:12:39
  TRACK 10 AUDIO
    TITLE "Orient Express (Vocal)"
    PERFORMER "Wish Key"
    FLAGS DCP
    INDEX 01 44:24:04
  TRACK 11 AUDIO
    TITLE "Last Summer (Vocal Version)"
    PERFORMER "Wish Key"
    FLAGS DCP
    INDEX 01 51:27:15
  TRACK 12 AUDIO
    TITLE "Acumbacha (Vocal Version)"
    PERFORMER "Wish Key"
    FLAGS DCP
    INDEX 01 58:18:50
  TRACK 13 AUDIO
    TITLE "Easy Way (Vocal)"
    PERFORMER "Wish Key"
    FLAGS DCP
    INDEX 01 64:32:07
  TRACK 14 AUDIO
    TITLE "The One You Love (Instrumental)"
    PERFORMER "Wish Key"
    FLAGS DCP
    INDEX 01 70:38:08
[Профиль] [ЛС]

Создавать темы 13-Авг-2015 10:41 (спустя 7 месяцев 20 дней)

Топик был перенесен из форума Зарубежная в форум Technopop, Eurodance, Disco
sergej644
 
Кто просматривает тему:

Показать сообщения:    

Текущее время: Сегодня 00:33

Часовой пояс: GMT



Вы не можете начинать темы
Вы не можете отвечать на сообщения
Вы не можете редактировать свои сообщения
Вы не можете удалять свои сообщения
Вы не можете голосовать в опросах
Вы не можете прикреплять файлы к сообщениям
Вы не можете скачивать файлы