(Hard Rock)Whitesnake - The Purple Album (2015) [FLAC (image+cue), Lossless]

 
Автор Сообщение

sergej644 ®

Пол:

Стаж: 4 года 11 месяцев

Сообщений: 6046

Откуда: Soviet Union



Награды: Нет

Торрент-статистика

Создавать темы 30-Май-2015 11:36

[Цитировать]

-Whitesnake / The Purple Album-- Год издания: 2015
Страна: UK
Жанр: Hard Rock
Продолжительность: 01:13:17-Лейбл издания: Frontiers Records
Страна-выпуска диска: Italy
Номер по каталогу: FR CDVD 683E
Формат: FLAC
Битрейт аудио: lossless
Тип рипа: image+.cue
Наличие сканов в содержимом раздачи: да
---

Трэклист

01.Burn (06:57)
02.You Fool No One (06:24)
03.Love Child (04:13)
04.Sail Away (04:54)
05.The Gypsy (05:30)
06.Lady Double Dealer (03:55)
07.Mistreated (07:38)
08.Holy Man (04:42)
09.Might Just Take Your Life (04:15)
10.You Keep On Moving (05:07)
11.Soldier of Fortune (03:19)
12.Lay Down Stay Down (03:52)
13.Stormbringer (05:18)
14.Lady Luck (Bonus Track) (03:02)
15.Comin' Home (Bonus Track) (04:17)
---

Лог создания рипа

Exact Audio Copy V1.0 beta 4 from 7. December 2014
EAC extraction logfile from 15. May 2015, 19:43
Whitesnake / Unknown Title
Used drive  : HL-DT-STDVDRAM GU40N   Adapter: 0  ID: 1
Read mode               : Secure
Utilize accurate stream : Yes
Defeat audio cache      : Yes
Make use of C2 pointers : No
Read offset correction                      : 103
Overread into Lead-In and Lead-Out          : No
Fill up missing offset samples with silence : Yes
Delete leading and trailing silent blocks   : No
Null samples used in CRC calculations       : Yes
Used interface                              : Installed external ASPI interface
Used output format              : User Defined Encoder
Selected bitrate                : 128 kBit/s
Quality                         : High
Add ID3 tag                     : No
Command line compressor         : C:\Program Files (x86)\AudioConverter\AudioConverter.exe
Additional command line options : FLAC
TOC of the extracted CD
     Track |   Start  |  Length  | Start sector | End sector
    ---------------------------------------------------------
        1  |  0:00.00 |  6:56.13 |         0    |    31212
        2  |  6:56.13 |  6:23.19 |     31213    |    59956
        3  | 13:19.32 |  4:12.74 |     59957    |    78930
        4  | 17:32.31 |  4:53.57 |     78931    |   100962
        5  | 22:26.13 |  5:29.58 |    100963    |   125695
        6  | 27:55.71 |  3:54.44 |    125696    |   143289
        7  | 31:50.40 |  7:37.03 |    143290    |   177567
        8  | 39:27.43 |  4:41.34 |    177568    |   198676
        9  | 44:09.02 |  4:14.73 |    198677    |   217799
       10  | 48:24.00 |  5:06.63 |    217800    |   240812
       11  | 53:30.63 |  3:18.60 |    240813    |   255722
       12  | 56:49.48 |  3:51.30 |    255723    |   273077
       13  | 60:41.03 |  5:17.07 |    273078    |   296859
       14  | 65:58.10 |  3:01.48 |    296860    |   310482
       15  | 68:59.58 |  4:16.29 |    310483    |   329711
Range status and errors
Selected range
     Filename C:\Users\workutagin\Desktop\Whitesnake - The Purple Album 2015 flac\Whitesnake - Unknown Title.wav
     Peak level 100.0 %
     Extraction speed 2.2 X
     Range quality 100.0 %
     Test CRC 768E345C
     Copy CRC 768E345C
     Copy OK
No errors occurred
End of status report

Индексная карта (non-compilant .cue)

REM GENRE "Hard Rock"
REM DATE 2015
REM DISCID C4112C0F
REM COMMENT "ExactAudioCopy v1.0b4"
PERFORMER "Whitesnake"
TITLE "The Purple Album"
FILE "Whitesnake - The Purple Album.flac" WAVE
  TRACK 01 AUDIO
    TITLE "Burn "
    PERFORMER "Whitesnake"
    INDEX 01 00:00:00
  TRACK 02 AUDIO
    TITLE "You Fool No One "
    PERFORMER "Whitesnake"
    INDEX 01 06:56:13
  TRACK 03 AUDIO
    TITLE "Love Child "
    PERFORMER "Whitesnake"
    INDEX 01 13:19:32
  TRACK 04 AUDIO
    TITLE "Sail Away "
    PERFORMER "Whitesnake"
    INDEX 01 17:32:31
  TRACK 05 AUDIO
    TITLE "The Gypsy"
    PERFORMER "Whitesnake"
    INDEX 01 22:26:13
  TRACK 06 AUDIO
    TITLE "Lady Double Dealer "
    PERFORMER "Whitesnake"
    INDEX 01 27:55:71
  TRACK 07 AUDIO
    TITLE "Mistreated "
    PERFORMER "Whitesnake"
    INDEX 01 31:50:40
  TRACK 08 AUDIO
    TITLE "Holy Man "
    PERFORMER "Whitesnake"
    INDEX 01 39:27:43
  TRACK 09 AUDIO
    TITLE "Might Just Take Your Life "
    PERFORMER "Whitesnake"
    INDEX 01 44:09:02
  TRACK 10 AUDIO
    TITLE "You Keep On Moving "
    PERFORMER "Whitesnake"
    INDEX 01 48:24:00
  TRACK 11 AUDIO
    TITLE "Soldier of Fortune "
    PERFORMER "Whitesnake"
    INDEX 00 53:30:38
    INDEX 01 53:30:63
  TRACK 12 AUDIO
    TITLE "Lay Down Stay Down "
    PERFORMER "Whitesnake"
    INDEX 00 56:49:46
    INDEX 01 56:49:48
  TRACK 13 AUDIO
    TITLE "Stormbringer"
    PERFORMER "Whitesnake"
    INDEX 01 60:41:03
  TRACK 14 AUDIO
    TITLE "Lady Luck (Bonus Track)"
    PERFORMER "Whitesnake"
    INDEX 01 65:58:10
  TRACK 15 AUDIO
    TITLE "Comin' Home (Bonus Track)"
    PERFORMER "Whitesnake"
    INDEX 01 68:59:58

Лог Audiochecker

AUDIOCHECKER v2.0 beta (build 457) - by Dester - opdester@freemail.hu
~~~~~~~~~~~~~~~~~~~~~~~~~~~~~~~~~~
Started at: суббота, 30. 05. 2015. - 18:05.59
1 file found
1 -===- D:\Torrent files\Whitesnake - The Purple Album (2015) FLAC\Whitesnake - The Purple Album.flac
  Extracted successfully
  Conclusion: this track is CDDA with probability 100%
  Tempfile successfully deleted.
Finished at: суббота, 30. 05. 2015. - 18:09.37 (operation time: 0:03.37)

Скриншот спектра частот

--Не забываем говорить
[Профиль] [ЛС]
Показать сообщения:    

Текущее время: Сегодня 01:27

Часовой пояс: GMT



Вы не можете начинать темы
Вы не можете отвечать на сообщения
Вы не можете редактировать свои сообщения
Вы не можете удалять свои сообщения
Вы не можете голосовать в опросах
Вы не можете прикреплять файлы к сообщениям
Вы не можете скачивать файлы