(Hard Rock) Whitesnake - Slide It In (1984)(The Ultimate Edition, Remaster)(6CD) - 2019 [FLAC, image +.cue, lossless]

 
Author Message

sergej644 ®

Gender:

Longevity: 7 years 8 months

Posts: 7276

Location: Klaipeda



: 9 ()

Top Seeder 3 (1) Mega Seeder 2 (1) Mega Seeder 4 (1)
Торрент-статистика

Post 31-Mar-2019 10:35

[Quote]

-Whitesnake - Slide It In (1984)(The Ultimate Edition, Remaster)(6CD)--
Год издания: 2019
Страна: England
Жанр: Hard Rock
Продолжительность: 05:45:17-Лейбл издания: Rhino Records / Parlophone
Страна-выпуска диска: EU
Номер по каталогу: R2 585836 / 0190295507534-Формат: FLAC
Битрейт аудио: Lossless
Тип рипа: image + cue
Наличие сканов в содержимом раздачи: да
-

Трэклист

CD 1 - US Remix Vesion | 00:39:56


01. Gambler (3:57)
02. Slide It In (3:19)
03. Slow An' Easy (6:01)
04. Love Ain't No Stranger (4:14)
05. Give Me More Time (3:42)
06. Standing In The Shadow (3:39)
07. Hungry For Love (3:29)
08. All Or Nothing (3:41)
09. Spit It Out (4:28)
10. Guilty Of Love (3:25)

CD 2 - Original UK Mix | 00:50:36


01. Gambler (3:59)
02. Slide It In (3:18)
03. Slow An' Easy (6:00)
04. Love Ain't No Stranger (4:07)
05. Give Me More Time (3:42)
06. Standing In The Shadow (3:35)
07. Hungry For Love (3:58)
08. All Or Nothing (3:41)
09. Spit It Out (4:14)
10. Guilty Of Love (3:24)
11. Need Your Love So Bad (Single B-Side) / Bonus Track (3:14)
12. Gambler (7'' Eddie Kramer Mix 1983) / Bonus Track (4:01)
13. Guilty Of Love (7'' Eddie Kramer Mix 1983) / Bonus Track (3:25)

CD 3 - Special 35th Anniversary US Remix | 00:44:07


01. Slide It In (3:20)
02. Slow An' Easy (6:07)
03. Love Ain't No Stranger (4:19)
04. Give Me More Time (3:40)
05. Guilty Of Love (3:24)
06. All Or Nothing (3:48)
07. Spit It Out (4:19)
08. Standing In The Shadow (3:25)
09. Hungry For Love (4:23)
10. Gambler (3:57)
11. Need Your Love So Bad (3:25)

CD 4 - Monitor Mixes & Intros | 00:59:54


01. Intro To Gambler From David Coverdale (0:21)
02. Gambler (Monitor Mix 1983) (3:58)
03. Standing In The Shadow (Monitor Mix 1983) (3:36)
04. Intro To Slide It In From David Coverdale (0:28)
05. Slide It In (Monitor Mix 1983) (3:19)
06. Give Me More Time (Monitor Mix 1983) (3:41)
07. Intro To Love Ain't No Stranger From David Coverdale (0:13)
08. Love Ain't No Stranger (Monitor Mix 1983) (4:18)
09. Hungry For Love (Monitor Mix 1983) (4:23)
10. Intro To Guilty Of Love From David Coverdale (0:23)
11. Guilty Of Love (Monitor Mix 1983) (3:23)
12. Spit It Out (Monitor Mix 1983) (4:26)
13. Intro To Slow An' Easy From David Coverdale (0:26)
14. Slow An' Easy (Monitor Mix 1983) (5:59)
15. All Or Nothing (Monitor Mix 1983) (3:54)
16. David Coverdale Discusses The US vs. UK Versions Of Slide It In (0:51)
17. Gambler (Jon Lord's Last Whitesnake Show, Sweden, April 16th, 1984) (3:25)
18. Guilty Of Love (Jon Lord's Last Whitesnake Show, Sweden, April 16th, 1984) (3:58)
19. Love Ain't No Stranger (Jon Lord's Last Whitesnake Show, Sweden, April 16th, ... (4:29)
20. Ready An' Willing (Jon Lord's Last Whitesnake Show, Sweden, April 16th, 1984) (4:21)

CD 5 - Live In Glasgow 1984 | 01:16:44


01. Gambler (3:55)
02. Guilty Of Love (4:48)
03. Reading An' Willing (Sweet Satisfaction) (5:45)
04. Love Ain't No Stranger (4:46)
05. Here I Go Again (4:51)
06. Slow An' Easy (7:11)
07. Crying In The Rain (Medley) (11:53)
08. Keyboard Solo (9:01)
09. Aint No Love In The Heart Of The City (7:26)
10. Fool For Your Loving (4:55)
11. Need Your Love So Bad / Thank You Blues (2:21)
12. Slide It In (3:50)
13. Don't Break My Heart Again (6:03)

CD 6 - Early Ruff Mixes, Original Demos & Obscurities | 01:13:59


01. All Or Nothing (Early Ruff Mixes With Unfinished Lyric) (3:27)
02. Hungry For Love (Early Ruff Mixes With Unfinished Lyric) (4:22)
03. Spit It Out (Early Ruff Mixes With Unfinished Lyric) (4:30)
04. Give Me More Time (Early Ruff Mixes With Unfinished Lyric) (3:40)
05. Slow An' Easy (Early Ruff Mixes With Unfinished Lyric) (6:06)
06. Love Ain’t No Stranger (Early Ruff Mixes With Unfinished Lyric) (4:22)
07. Need Your Love So Bad (feat. Jon Lord) (Instrumental / Early Ruff Mixes With ... (3:15)
08. Slow An' Easy (A Capella Excerpts Remix) (1:17)
09. All Or Nothing (Organ & Drums Excerpts Remix) (1:36)
10. Wheezy Interludes (Various Alcoholic Studio Antics, David And Mel 'Fighting A... (6:54)
11. Slow An' Easy (Original Demo) (3:54)
12. Slide It In (Original Demo) (0:44)
13. Standing In The Shadow (Original Demo) (2:50)
14. All Or Nothing (Original Demo) (1:55)
15. Spit It Out (Original Demo) (1:20)
16. Guilty Of Love (Original Demo) (2:22)
17. Love Ain’t No Stranger (Original Demo) (1:20)
18. Intro To Need Your Love So Bad From David Coverdale (0:33)
19. Need Your Love So Bad (Original Demo) (3:24)
20. Body Heat (Unfinished Symphonies) (2:17)
21. The Gypsy In You (Unfinished Symphonies) (1:48)
22. Lounge Lizards (Unfinished Symphonies) (1:46)
23. Great Riff In The Morning (Unfinished Symphonies) (0:24)
24. The River Song (Unfinished Symphonies) (0:57)
25. Can’t Make A Deal With the Devil (Unfinished Symphonies) (1:56)
26. Prayer For The Dying (Unfinished Symphonies) (2:15)
27. Spend The Night With Me (Unfinished Symphonies) (1:28)
28. So Much To Live For (Unfinished Symphonies) (1:05)
29. Riff Raff Blues (Unfinished Symphonies) (1:21)
30. Thank You Blues (Unfinished Symphonies) (0:51)
-

Лог создания рипа

CD 1 - US Remix Vesion

Exact Audio Copy V1.3 from 2. September 2016
EAC extraction logfile from 22. March 2019, 10:07
Whitesnake / Slide It In CD1 US Remix Vesion
Used drive  : PLEXTOR BD-R  PX-B950SA   Adapter: 1  ID: 1
Read mode               : Secure
Utilize accurate stream : Yes
Defeat audio cache      : Yes
Make use of C2 pointers : No
Read offset correction                      : 6
Overread into Lead-In and Lead-Out          : No
Fill up missing offset samples with silence : Yes
Delete leading and trailing silent blocks   : No
Null samples used in CRC calculations       : Yes
Used interface                              : Native Win32 interface for Win NT & 2000
Used output format : Internal WAV Routines
Sample format      : 44.100 Hz; 16 Bit; Stereo
TOC of the extracted CD
     Track |   Start  |  Length  | Start sector | End sector
    ---------------------------------------------------------
        1  |  0:00.00 |  3:57.28 |         0    |    17802
        2  |  3:57.28 |  3:19.26 |     17803    |    32753
        3  |  7:16.54 |  6:00.57 |     32754    |    59810
        4  | 13:17.36 |  4:14.35 |     59811    |    78895
        5  | 17:31.71 |  3:42.09 |     78896    |    95554
        6  | 21:14.05 |  3:38.61 |     95555    |   111965
        7  | 24:52.66 |  3:29.15 |    111966    |   127655
        8  | 28:22.06 |  3:40.71 |    127656    |   144226
        9  | 32:03.02 |  4:28.32 |    144227    |   164358
       10  | 36:31.34 |  3:24.70 |    164359    |   179728
Range status and errors
Selected range
     Filename C:\Users\Desktop\Whitesnake\1984 Slide It In (7-Disc Box Set Rhino Records 2019)\CD1 US Remix Vesion\Whitesnake - Slide It In CD1 US Remix Vesion.wav
     Peak level 99.4 %
     Extraction speed 6.3 X
     Range quality 99.9 %
     Test CRC 329708B4
     Copy CRC 329708B4
     Copy OK
No errors occurred
AccurateRip summary
Track  1  not present in database
Track  2  not present in database
Track  3  not present in database
Track  4  not present in database
Track  5  not present in database
Track  6  not present in database
Track  7  not present in database
Track  8  not present in database
Track  9  not present in database
Track 10  not present in database
None of the tracks are present in the AccurateRip database
End of status report

CD 2 - Original UK Mix

Exact Audio Copy V1.3 from 2. September 2016
EAC extraction logfile from 22. March 2019, 9:35
Whitesnake / Slide It In CD2 Original UK Mix
Used drive  : PLEXTOR BD-R  PX-B950SA   Adapter: 1  ID: 1
Read mode               : Secure
Utilize accurate stream : Yes
Defeat audio cache      : Yes
Make use of C2 pointers : No
Read offset correction                      : 6
Overread into Lead-In and Lead-Out          : No
Fill up missing offset samples with silence : Yes
Delete leading and trailing silent blocks   : No
Null samples used in CRC calculations       : Yes
Used interface                              : Native Win32 interface for Win NT & 2000
Used output format : Internal WAV Routines
Sample format      : 44.100 Hz; 16 Bit; Stereo
TOC of the extracted CD
     Track |   Start  |  Length  | Start sector | End sector
    ---------------------------------------------------------
        1  |  0:00.00 |  3:59.27 |         0    |    17951
        2  |  3:59.27 |  3:17.43 |     17952    |    32769
        3  |  7:16.70 |  6:00.00 |     32770    |    59769
        4  | 13:16.70 |  4:06.66 |     59770    |    78285
        5  | 17:23.61 |  3:42.09 |     78286    |    94944
        6  | 21:05.70 |  3:34.47 |     94945    |   111041
        7  | 24:40.42 |  3:57.57 |    111042    |   128873
        8  | 28:38.24 |  3:40.49 |    128874    |   145422
        9  | 32:18.73 |  4:14.09 |    145423    |   164481
       10  | 36:33.07 |  3:23.60 |    164482    |   179766
       11  | 39:56.67 |  3:13.57 |    179767    |   194298
       12  | 43:10.49 |  4:00.54 |    194299    |   212352
       13  | 47:11.28 |  3:24.40 |    212353    |   227692
Range status and errors
Selected range
     Filename C:\Users\Desktop\Whitesnake\1984 Slide It In (7-Disc Box Set Rhino Records 2019)\CD2 Original UK Mix\Whitesnake - Slide It In CD2 Original UK Mix.wav
     Peak level 98.1 %
     Extraction speed 6.9 X
     Range quality 100.0 %
     Test CRC 5441BFC8
     Copy CRC 5441BFC8
     Copy OK
No errors occurred
AccurateRip summary
Track  1  not present in database
Track  2  not present in database
Track  3  not present in database
Track  4  not present in database
Track  5  not present in database
Track  6  not present in database
Track  7  not present in database
Track  8  not present in database
Track  9  not present in database
Track 10  not present in database
Track 11  not present in database
Track 12  not present in database
Track 13  not present in database
None of the tracks are present in the AccurateRip database
End of status report

CD 3 - Special 35th Anniversary US Remix

Exact Audio Copy V1.3 from 2. September 2016
EAC extraction logfile from 22. March 2019, 8:55
Whitesnake / Slide It In CD3 Special 35th Anniversary US Remix
Used drive  : PLEXTOR BD-R  PX-B950SA   Adapter: 1  ID: 1
Read mode               : Secure
Utilize accurate stream : Yes
Defeat audio cache      : Yes
Make use of C2 pointers : No
Read offset correction                      : 6
Overread into Lead-In and Lead-Out          : No
Fill up missing offset samples with silence : Yes
Delete leading and trailing silent blocks   : No
Null samples used in CRC calculations       : Yes
Used interface                              : Native Win32 interface for Win NT & 2000
Used output format : Internal WAV Routines
Sample format      : 44.100 Hz; 16 Bit; Stereo
TOC of the extracted CD
     Track |   Start  |  Length  | Start sector | End sector
    ---------------------------------------------------------
        1  |  0:00.00 |  3:19.45 |         0    |    14969
        2  |  3:19.45 |  6:07.14 |     14970    |    42508
        3  |  9:26.59 |  4:19.17 |     42509    |    61950
        4  | 13:46.01 |  3:39.59 |     61951    |    78434
        5  | 17:25.60 |  3:24.26 |     78435    |    93760
        6  | 20:50.11 |  3:48.29 |     93761    |   110889
        7  | 24:38.40 |  4:19.22 |    110890    |   130336
        8  | 28:57.62 |  3:24.44 |    130337    |   145680
        9  | 32:22.31 |  4:22.69 |    145681    |   165399
       10  | 36:45.25 |  3:56.64 |    165400    |   183163
       11  | 40:42.14 |  3:25.22 |    183164    |   198560
Range status and errors
Selected range
     Filename C:\Users\Desktop\Whitesnake\1984 Slide It In (7-Disc Box Set Rhino Records 2019)\CD3 Special 35th Anniversary US Remix\Whitesnake - Slide It In CD3 Special 35th US Remix.wav
     Peak level 94.9 %
     Extraction speed 6.7 X
     Range quality 100.0 %
     Test CRC E2DC7B7B
     Copy CRC E2DC7B7B
     Copy OK
No errors occurred
AccurateRip summary
Track  1  not present in database
Track  2  not present in database
Track  3  not present in database
Track  4  not present in database
Track  5  not present in database
Track  6  not present in database
Track  7  not present in database
Track  8  not present in database
Track  9  not present in database
Track 10  not present in database
Track 11  not present in database
None of the tracks are present in the AccurateRip database
End of status report

CD 4 - Monitor Mixes & Intros

Exact Audio Copy V1.3 from 2. September 2016
EAC extraction logfile from 21. March 2019, 20:51
Whitesnake / Slide It In CD4 Monitor Mixes & Intros etc
Used drive  : PLEXTOR BD-R  PX-B950SA   Adapter: 1  ID: 1
Read mode               : Secure
Utilize accurate stream : Yes
Defeat audio cache      : Yes
Make use of C2 pointers : No
Read offset correction                      : 6
Overread into Lead-In and Lead-Out          : No
Fill up missing offset samples with silence : Yes
Delete leading and trailing silent blocks   : No
Null samples used in CRC calculations       : Yes
Used interface                              : Native Win32 interface for Win NT & 2000
Used output format : Internal WAV Routines
Sample format      : 44.100 Hz; 16 Bit; Stereo
TOC of the extracted CD
     Track |   Start  |  Length  | Start sector | End sector
    ---------------------------------------------------------
        1  |  0:00.00 |  0:21.25 |         0    |     1599
        2  |  0:21.25 |  3:57.49 |      1600    |    19423
        3  |  4:18.74 |  3:36.12 |     19424    |    35635
        4  |  7:55.11 |  0:28.34 |     35636    |    37769
        5  |  8:23.45 |  3:19.10 |     37770    |    52704
        6  | 11:42.55 |  3:41.04 |     52705    |    69283
        7  | 15:23.59 |  0:13.23 |     69284    |    70281
        8  | 15:37.07 |  4:18.22 |     70282    |    89653
        9  | 19:55.29 |  4:22.50 |     89654    |   109353
       10  | 24:18.04 |  0:23.14 |    109354    |   111092
       11  | 24:41.18 |  3:23.32 |    111093    |   126349
       12  | 28:04.50 |  4:25.44 |    126350    |   146268
       13  | 32:30.19 |  0:26.31 |    146269    |   148249
       14  | 32:56.50 |  5:58.72 |    148250    |   175171
       15  | 38:55.47 |  3:53.56 |    175172    |   192702
       16  | 42:49.28 |  0:51.23 |    192703    |   196550
       17  | 43:40.51 |  3:25.37 |    196551    |   211962
       18  | 47:06.13 |  3:58.08 |    211963    |   229820
       19  | 51:04.21 |  4:29.29 |    229821    |   250024
       20  | 55:33.50 |  4:20.52 |    250025    |   269576
Range status and errors
Selected range
     Filename C:\Users\Desktop\Whitesnake\1984 Slide It In (7-Disc Box Set Rhino Records 2019)\CD4 Monitor Mixes & Intros\Whitesnake - Slide It In CD4 Monitor Mixes & Intros etc.wav
     Peak level 99.6 %
     Extraction speed 7.2 X
     Range quality 100.0 %
     Test CRC 973719B6
     Copy CRC 973719B6
     Copy OK
No errors occurred
AccurateRip summary
Track  1  not present in database
Track  2  not present in database
Track  3  not present in database
Track  4  not present in database
Track  5  not present in database
Track  6  not present in database
Track  7  not present in database
Track  8  not present in database
Track  9  not present in database
Track 10  not present in database
Track 11  not present in database
Track 12  not present in database
Track 13  not present in database
Track 14  not present in database
Track 15  not present in database
Track 16  not present in database
Track 17  not present in database
Track 18  not present in database
Track 19  not present in database
Track 20  not present in database
None of the tracks are present in the AccurateRip database
End of status report

CD 5 - Live In Glasgow 1984

Exact Audio Copy V1.3 from 2. September 2016
EAC extraction logfile from 21. March 2019, 20:14
Whitesnake / Slide It In CD5 Live In Glasgow 1984
Used drive  : PLEXTOR BD-R  PX-B950SA   Adapter: 1  ID: 1
Read mode               : Secure
Utilize accurate stream : Yes
Defeat audio cache      : Yes
Make use of C2 pointers : No
Read offset correction                      : 6
Overread into Lead-In and Lead-Out          : No
Fill up missing offset samples with silence : Yes
Delete leading and trailing silent blocks   : No
Null samples used in CRC calculations       : Yes
Used interface                              : Native Win32 interface for Win NT & 2000
Used output format : Internal WAV Routines
Sample format      : 44.100 Hz; 16 Bit; Stereo
TOC of the extracted CD
     Track |   Start  |  Length  | Start sector | End sector
    ---------------------------------------------------------
        1  |  0:00.00 |  3:55.36 |         0    |    17660
        2  |  3:55.36 |  4:47.48 |     17661    |    39233
        3  |  8:43.09 |  5:44.74 |     39234    |    65107
        4  | 14:28.08 |  4:46.01 |     65108    |    86558
        5  | 19:14.09 |  4:50.61 |     86559    |   108369
        6  | 24:04.70 |  7:10.71 |    108370    |   140690
        7  | 31:15.66 | 11:53.17 |    140691    |   194182
        8  | 43:09.08 |  9:01.24 |    194183    |   234781
        9  | 52:10.32 |  7:25.58 |    234782    |   268214
       10  | 59:36.15 |  4:54.61 |    268215    |   290325
       11  | 64:31.01 |  2:20.57 |    290326    |   300882
       12  | 66:51.58 |  3:49.53 |    300883    |   318110
       13  | 70:41.36 |  6:02.64 |    318111    |   345324
Range status and errors
Selected range
     Filename C:\Users\Desktop\Whitesnake\1984 Slide It In (7-Disc Box Set Rhino Records 2019)\CD5 Live In Glasgow 1984\Whitesnake - Slide It In CD5 Live In Glasgow 1984.wav
     Peak level 98.5 %
     Extraction speed 8.4 X
     Range quality 100.0 %
     Test CRC D34D6633
     Copy CRC D34D6633
     Copy OK
No errors occurred
AccurateRip summary
Track  1  not present in database
Track  2  not present in database
Track  3  not present in database
Track  4  not present in database
Track  5  not present in database
Track  6  not present in database
Track  7  not present in database
Track  8  not present in database
Track  9  not present in database
Track 10  not present in database
Track 11  not present in database
Track 12  not present in database
Track 13  not present in database
None of the tracks are present in the AccurateRip database
End of status report

CD 6 - Early Ruff Mixes, Original Demos & Obscurities

Exact Audio Copy V1.3 from 2. September 2016
EAC extraction logfile from 21. March 2019, 19:33
Whitesnake / Slide It In CD6 Ruff Mixes, Demos etc
Used drive  : PLEXTOR BD-R  PX-B950SA   Adapter: 1  ID: 1
Read mode               : Secure
Utilize accurate stream : Yes
Defeat audio cache      : Yes
Make use of C2 pointers : No
Read offset correction                      : 6
Overread into Lead-In and Lead-Out          : No
Fill up missing offset samples with silence : Yes
Delete leading and trailing silent blocks   : No
Null samples used in CRC calculations       : Yes
Used interface                              : Native Win32 interface for Win NT & 2000
Used output format : Internal WAV Routines
Sample format      : 44.100 Hz; 16 Bit; Stereo
TOC of the extracted CD
     Track |   Start  |  Length  | Start sector | End sector
    ---------------------------------------------------------
        1  |  0:00.00 |  3:26.47 |         0    |    15496
        2  |  3:26.47 |  4:22.20 |     15497    |    35166
        3  |  7:48.67 |  4:29.38 |     35167    |    55379
        4  | 12:18.30 |  3:39.47 |     55380    |    71851
        5  | 15:58.02 |  6:06.22 |     71852    |    99323
        6  | 22:04.24 |  4:21.51 |     99324    |   118949
        7  | 26:26.00 |  3:15.33 |    118950    |   133607
        8  | 29:41.33 |  1:17.19 |    133608    |   139401
        9  | 30:58.52 |  1:36.30 |    139402    |   146631
       10  | 32:35.07 |  6:54.06 |    146632    |   177687
       11  | 39:29.13 |  3:53.44 |    177688    |   195206
       12  | 43:22.57 |  0:44.01 |    195207    |   198507
       13  | 44:06.58 |  2:49.62 |    198508    |   211244
       14  | 46:56.45 |  1:54.72 |    211245    |   219866
       15  | 48:51.42 |  1:20.34 |    219867    |   225900
       16  | 50:12.01 |  2:21.70 |    225901    |   236545
       17  | 52:33.71 |  1:19.54 |    236546    |   242524
       18  | 53:53.50 |  0:32.69 |    242525    |   244993
       19  | 54:26.44 |  3:23.70 |    244994    |   260288
       20  | 57:50.39 |  2:16.50 |    260289    |   270538
       21  | 60:07.14 |  1:47.56 |    270539    |   278619
       22  | 61:54.70 |  1:46.29 |    278620    |   286598
       23  | 63:41.24 |  0:23.50 |    286599    |   288373
       24  | 64:04.74 |  0:57.04 |    288374    |   292652
       25  | 65:02.03 |  1:56.01 |    292653    |   301353
       26  | 66:58.04 |  2:15.27 |    301354    |   311505
       27  | 69:13.31 |  1:27.51 |    311506    |   318081
       28  | 70:41.07 |  1:05.23 |    318082    |   322979
       29  | 71:46.30 |  1:20.67 |    322980    |   329046
       30  | 73:07.22 |  0:51.21 |    329047    |   332892
Range status and errors
Selected range
     Filename C:\Users\Desktop\Whitesnake\1984 Slide It In (7-Disc Box Set Rhino Records 2019)\CD6 Early Ruff Mixes, Original Demos & Obscurities\Whitesnake - Slide It In CD6 Ruff Mixes, Demos etc.wav
     Peak level 98.8 %
     Extraction speed 8.0 X
     Range quality 100.0 %
     Test CRC 7F9C19C0
     Copy CRC 7F9C19C0
     Copy OK
No errors occurred
AccurateRip summary
Track  1  not present in database
Track  2  not present in database
Track  3  not present in database
Track  4  not present in database
Track  5  not present in database
Track  6  not present in database
Track  7  not present in database
Track  8  not present in database
Track  9  not present in database
Track 10  not present in database
Track 11  not present in database
Track 12  not present in database
Track 13  not present in database
Track 14  not present in database
Track 15  not present in database
Track 16  not present in database
Track 17  not present in database
Track 18  not present in database
Track 19  not present in database
Track 20  not present in database
Track 21  not present in database
Track 22  not present in database
Track 23  not present in database
Track 24  not present in database
Track 25  not present in database
Track 26  not present in database
Track 27  not present in database
Track 28  not present in database
Track 29  not present in database
Track 30  not present in database
None of the tracks are present in the AccurateRip database
End of status report

Индексная карта (non-compilant .cue)

CD 1 - US Remix Vesion

REM GENRE "Hard Rock"
REM DATE 1984
REM DISCID 8F095C0A
REM COMMENT "ExactAudioCopy v1.3"
PERFORMER "Whitesnake"
TITLE "Slide It In CD1 US Remix Vesion"
REM COMPOSER "Whitesnake"
FILE "Whitesnake - Slide It In CD1 US Remix Vesion.flac" WAVE
  TRACK 01 AUDIO
    TITLE "Gambler"
    PERFORMER "Whitesnake"
    REM COMPOSER "Whitesnake"
    FLAGS DCP
    INDEX 01 00:00:00
  TRACK 02 AUDIO
    TITLE "Slide It In"
    PERFORMER "Whitesnake"
    REM COMPOSER "Whitesnake"
    FLAGS DCP
    INDEX 01 03:57:28
  TRACK 03 AUDIO
    TITLE "Slow An' Easy"
    PERFORMER "Whitesnake"
    REM COMPOSER "Whitesnake"
    FLAGS DCP
    INDEX 01 07:16:54
  TRACK 04 AUDIO
    TITLE "Love Ain't No Stranger"
    PERFORMER "Whitesnake"
    REM COMPOSER "Whitesnake"
    FLAGS DCP
    INDEX 01 13:17:36
  TRACK 05 AUDIO
    TITLE "Give Me More Time"
    PERFORMER "Whitesnake"
    REM COMPOSER "Whitesnake"
    FLAGS DCP
    INDEX 01 17:31:71
  TRACK 06 AUDIO
    TITLE "Standing In The Shadow"
    PERFORMER "Whitesnake"
    REM COMPOSER "Whitesnake"
    FLAGS DCP
    INDEX 01 21:14:05
  TRACK 07 AUDIO
    TITLE "Hungry For Love"
    PERFORMER "Whitesnake"
    REM COMPOSER "Whitesnake"
    FLAGS DCP
    INDEX 01 24:52:66
  TRACK 08 AUDIO
    TITLE "All Or Nothing"
    PERFORMER "Whitesnake"
    REM COMPOSER "Whitesnake"
    FLAGS DCP
    INDEX 01 28:22:06
  TRACK 09 AUDIO
    TITLE "Spit It Out"
    PERFORMER "Whitesnake"
    REM COMPOSER "Whitesnake"
    FLAGS DCP
    INDEX 01 32:03:02
  TRACK 10 AUDIO
    TITLE "Guilty Of Love"
    PERFORMER "Whitesnake"
    REM COMPOSER "Whitesnake"
    FLAGS DCP
    INDEX 01 36:31:34

CD 2 - Original UK Mix

REM GENRE "Hard Rock"
REM DATE 1984
REM DISCID BA0BDB0D
REM COMMENT "ExactAudioCopy v1.3"
PERFORMER "Whitesnake"
TITLE "Slide It In CD2 Original UK Mix"
REM COMPOSER "Whitesnake"
FILE "Whitesnake - Slide It In CD2 Original UK Mix.flac" WAVE
  TRACK 01 AUDIO
    TITLE "Gambler"
    PERFORMER "Whitesnake"
    REM COMPOSER "Whitesnake"
    FLAGS DCP
    INDEX 01 00:00:00
  TRACK 02 AUDIO
    TITLE "Slide It In"
    PERFORMER "Whitesnake"
    REM COMPOSER "Whitesnake"
    FLAGS DCP
    INDEX 01 03:59:27
  TRACK 03 AUDIO
    TITLE "Slow An' Easy"
    PERFORMER "Whitesnake"
    REM COMPOSER "Whitesnake"
    FLAGS DCP
    INDEX 01 07:16:70
  TRACK 04 AUDIO
    TITLE "Love Ain't No Stranger"
    PERFORMER "Whitesnake"
    REM COMPOSER "Whitesnake"
    FLAGS DCP
    INDEX 01 13:16:70
  TRACK 05 AUDIO
    TITLE "Give Me More Time"
    PERFORMER "Whitesnake"
    REM COMPOSER "Whitesnake"
    FLAGS DCP
    INDEX 01 17:23:61
  TRACK 06 AUDIO
    TITLE "Standing In The Shadow"
    PERFORMER "Whitesnake"
    REM COMPOSER "Whitesnake"
    FLAGS DCP
    INDEX 01 21:05:70
  TRACK 07 AUDIO
    TITLE "Hungry For Love"
    PERFORMER "Whitesnake"
    REM COMPOSER "Whitesnake"
    FLAGS DCP
    INDEX 01 24:40:42
  TRACK 08 AUDIO
    TITLE "All Or Nothing"
    PERFORMER "Whitesnake"
    REM COMPOSER "Whitesnake"
    FLAGS DCP
    INDEX 01 28:38:24
  TRACK 09 AUDIO
    TITLE "Spit It Out"
    PERFORMER "Whitesnake"
    REM COMPOSER "Whitesnake"
    FLAGS DCP
    INDEX 01 32:18:73
  TRACK 10 AUDIO
    TITLE "Guilty Of Love"
    PERFORMER "Whitesnake"
    REM COMPOSER "Whitesnake"
    FLAGS DCP
    INDEX 01 36:33:07
  TRACK 11 AUDIO
    TITLE "Need Your Love So Bad (Single B-Side) / Bonus Track"
    PERFORMER "Whitesnake"
    REM COMPOSER "Whitesnake"
    FLAGS DCP
    INDEX 01 39:56:67
  TRACK 12 AUDIO
    TITLE "Gambler (7'' Eddie Kramer Mix 1983) / Bonus Track"
    PERFORMER "Whitesnake"
    REM COMPOSER "Whitesnake"
    FLAGS DCP
    INDEX 01 43:10:49
  TRACK 13 AUDIO
    TITLE "Guilty Of Love (7'' Eddie Kramer Mix 1983) / Bonus Track"
    PERFORMER "Whitesnake"
    REM COMPOSER "Whitesnake"
    FLAGS DCP
    INDEX 01 47:11:28

CD 3 - Special 35th Anniversary US Remix

REM GENRE "Hard Rock"
REM DATE 1984
REM DISCID 8C0A570B
REM COMMENT "ExactAudioCopy v1.3"
PERFORMER "Whitesnake"
TITLE "Slide It In CD3 Special 35th Anniversary US Remix"
REM COMPOSER "Whitesnake"
FILE "Whitesnake - Slide It In CD3 Special 35th US Remix.flac" WAVE
  TRACK 01 AUDIO
    TITLE "Slide It In"
    PERFORMER "Whitesnake"
    REM COMPOSER "Whitesnake"
    FLAGS DCP
    INDEX 01 00:00:00
  TRACK 02 AUDIO
    TITLE "Slow An' Easy"
    PERFORMER "Whitesnake"
    REM COMPOSER "Whitesnake"
    FLAGS DCP
    INDEX 01 03:19:45
  TRACK 03 AUDIO
    TITLE "Love Ain't No Stranger"
    PERFORMER "Whitesnake"
    REM COMPOSER "Whitesnake"
    FLAGS DCP
    INDEX 01 09:26:59
  TRACK 04 AUDIO
    TITLE "Give Me More Time"
    PERFORMER "Whitesnake"
    REM COMPOSER "Whitesnake"
    FLAGS DCP
    INDEX 01 13:46:01
  TRACK 05 AUDIO
    TITLE "Guilty Of Love"
    PERFORMER "Whitesnake"
    REM COMPOSER "Whitesnake"
    FLAGS DCP
    INDEX 01 17:25:60
  TRACK 06 AUDIO
    TITLE "All Or Nothing"
    PERFORMER "Whitesnake"
    REM COMPOSER "Whitesnake"
    FLAGS DCP
    INDEX 01 20:50:11
  TRACK 07 AUDIO
    TITLE "Spit It Out"
    PERFORMER "Whitesnake"
    REM COMPOSER "Whitesnake"
    FLAGS DCP
    INDEX 01 24:38:40
  TRACK 08 AUDIO
    TITLE "Standing In The Shadow"
    PERFORMER "Whitesnake"
    REM COMPOSER "Whitesnake"
    FLAGS DCP
    INDEX 01 28:57:62
  TRACK 09 AUDIO
    TITLE "Hungry For Love"
    PERFORMER "Whitesnake"
    REM COMPOSER "Whitesnake"
    FLAGS DCP
    INDEX 01 32:22:31
  TRACK 10 AUDIO
    TITLE "Gambler"
    PERFORMER "Whitesnake"
    REM COMPOSER "Whitesnake"
    FLAGS DCP
    INDEX 01 36:45:25
  TRACK 11 AUDIO
    TITLE "Need Your Love So Bad"
    PERFORMER "Whitesnake"
    REM COMPOSER "Whitesnake"
    FLAGS DCP
    INDEX 01 40:42:14

CD 4 - Monitor Mixes & Intros

REM GENRE "Hard Rock"
REM DATE 2019
REM DISCID 230E0A14
REM COMMENT "ExactAudioCopy v1.3"
PERFORMER "Whitesnake"
TITLE "Slide It In CD4 Monitor Mixes & Intros etc"
REM COMPOSER "Whitesnake"
FILE "Whitesnake - Slide It In CD4 Monitor Mixes & Intros etc.flac" WAVE
  TRACK 01 AUDIO
    TITLE "Intro To Gambler From David Coverdale"
    PERFORMER "Whitesnake"
    REM COMPOSER "Whitesnake"
    FLAGS DCP
    INDEX 01 00:00:00
  TRACK 02 AUDIO
    TITLE "Gambler (Monitor Mix 1983)"
    PERFORMER "Whitesnake"
    REM COMPOSER "Whitesnake"
    FLAGS DCP
    INDEX 01 00:21:25
  TRACK 03 AUDIO
    TITLE "Standing In The Shadow (Monitor Mix 1983)"
    PERFORMER "Whitesnake"
    REM COMPOSER "Whitesnake"
    FLAGS DCP
    INDEX 01 04:18:74
  TRACK 04 AUDIO
    TITLE "Intro To Slide It In From David Coverdale"
    PERFORMER "Whitesnake"
    REM COMPOSER "Whitesnake"
    FLAGS DCP
    INDEX 01 07:55:11
  TRACK 05 AUDIO
    TITLE "Slide It In (Monitor Mix 1983)"
    PERFORMER "Whitesnake"
    REM COMPOSER "Whitesnake"
    FLAGS DCP
    INDEX 01 08:23:45
  TRACK 06 AUDIO
    TITLE "Give Me More Time (Monitor Mix 1983)"
    PERFORMER "Whitesnake"
    REM COMPOSER "Whitesnake"
    FLAGS DCP
    INDEX 01 11:42:55
  TRACK 07 AUDIO
    TITLE "Intro To Love Ain't No Stranger From David Coverdale"
    PERFORMER "Whitesnake"
    REM COMPOSER "Whitesnake"
    FLAGS DCP
    INDEX 01 15:23:59
  TRACK 08 AUDIO
    TITLE "Love Ain't No Stranger (Monitor Mix 1983)"
    PERFORMER "Whitesnake"
    REM COMPOSER "Whitesnake"
    FLAGS DCP
    INDEX 01 15:37:07
  TRACK 09 AUDIO
    TITLE "Hungry For Love (Monitor Mix 1983)"
    PERFORMER "Whitesnake"
    REM COMPOSER "Whitesnake"
    FLAGS DCP
    INDEX 01 19:55:29
  TRACK 10 AUDIO
    TITLE "Intro To Guilty Of Love From David Coverdale"
    PERFORMER "Whitesnake"
    REM COMPOSER "Whitesnake"
    FLAGS DCP
    INDEX 01 24:18:04
  TRACK 11 AUDIO
    TITLE "Guilty Of Love (Monitor Mix 1983)"
    PERFORMER "Whitesnake"
    REM COMPOSER "Whitesnake"
    FLAGS DCP
    INDEX 01 24:41:18
  TRACK 12 AUDIO
    TITLE "Spit It Out (Monitor Mix 1983)"
    PERFORMER "Whitesnake"
    REM COMPOSER "Whitesnake"
    FLAGS DCP
    INDEX 01 28:04:50
  TRACK 13 AUDIO
    TITLE "Intro To Slow An' Easy From David Coverdale"
    PERFORMER "Whitesnake"
    REM COMPOSER "Whitesnake"
    FLAGS DCP
    INDEX 01 32:30:19
  TRACK 14 AUDIO
    TITLE "Slow An' Easy (Monitor Mix 1983)"
    PERFORMER "Whitesnake"
    REM COMPOSER "Whitesnake"
    FLAGS DCP
    INDEX 01 32:56:50
  TRACK 15 AUDIO
    TITLE "All Or Nothing (Monitor Mix 1983)"
    PERFORMER "Whitesnake"
    REM COMPOSER "Whitesnake"
    FLAGS DCP
    INDEX 01 38:55:47
  TRACK 16 AUDIO
    TITLE "David Coverdale Discusses The US vs. UK Versions Of Slide It In"
    PERFORMER "Whitesnake"
    REM COMPOSER "Whitesnake"
    FLAGS DCP
    INDEX 01 42:49:28
  TRACK 17 AUDIO
    TITLE "Gambler (Jon Lord's Last Whitesnake Show, Sweden, April 16th, 1984)"
    PERFORMER "Whitesnake"
    REM COMPOSER "Whitesnake"
    FLAGS DCP
    INDEX 01 43:40:51
  TRACK 18 AUDIO
    TITLE "Guilty Of Love (Jon Lord's Last Whitesnake Show, Sweden, April 16th, 1984)"
    PERFORMER "Whitesnake"
    REM COMPOSER "Whitesnake"
    FLAGS DCP
    INDEX 01 47:06:13
  TRACK 19 AUDIO
    TITLE "Love Ain't No Stranger (Jon Lord's Last Whitesnake Show, Sweden, April 16th, ..."
    PERFORMER "Whitesnake"
    REM COMPOSER "Whitesnake"
    FLAGS DCP
    INDEX 01 51:04:21
  TRACK 20 AUDIO
    TITLE "Ready An' Willing (Jon Lord's Last Whitesnake Show, Sweden, April 16th, 1984)"
    PERFORMER "Whitesnake"
    REM COMPOSER "Whitesnake"
    FLAGS DCP
    INDEX 01 55:33:50

CD 5 - Live In Glasgow 1984

REM GENRE "Hard Rock"
REM DATE 1984
REM DISCID B711FC0D
REM COMMENT "ExactAudioCopy v1.3"
PERFORMER "Whitesnake"
TITLE "Slide It In CD5 Live In Glasgow 1984"
REM COMPOSER "Whitesnake"
FILE "Whitesnake - Slide It In CD5 Live In Glasgow 1984.flac" WAVE
  TRACK 01 AUDIO
    TITLE "Gambler"
    PERFORMER "Whitesnake"
    REM COMPOSER "Whitesnake"
    FLAGS DCP
    INDEX 01 00:00:00
  TRACK 02 AUDIO
    TITLE "Guilty Of Love"
    PERFORMER "Whitesnake"
    REM COMPOSER "Whitesnake"
    FLAGS DCP
    INDEX 01 03:55:36
  TRACK 03 AUDIO
    TITLE "Reading An' Willing (Sweet Satisfaction)"
    PERFORMER "Whitesnake"
    REM COMPOSER "Whitesnake"
    FLAGS DCP
    INDEX 01 08:43:09
  TRACK 04 AUDIO
    TITLE "Love Ain't No Stranger"
    PERFORMER "Whitesnake"
    REM COMPOSER "Whitesnake"
    FLAGS DCP
    INDEX 01 14:28:08
  TRACK 05 AUDIO
    TITLE "Here I Go Again"
    PERFORMER "Whitesnake"
    REM COMPOSER "Whitesnake"
    FLAGS DCP
    INDEX 01 19:14:09
  TRACK 06 AUDIO
    TITLE "Slow An' Easy"
    PERFORMER "Whitesnake"
    REM COMPOSER "Whitesnake"
    FLAGS DCP
    INDEX 01 24:04:70
  TRACK 07 AUDIO
    TITLE "Crying In The Rain (Medley)"
    PERFORMER "Whitesnake"
    REM COMPOSER "Whitesnake"
    FLAGS DCP
    INDEX 01 31:15:66
  TRACK 08 AUDIO
    TITLE "Keyboard Solo"
    PERFORMER "Whitesnake"
    REM COMPOSER "Whitesnake"
    FLAGS DCP
    INDEX 01 43:09:08
  TRACK 09 AUDIO
    TITLE "Aint No Love In The Heart Of The City"
    PERFORMER "Whitesnake"
    REM COMPOSER "Whitesnake"
    FLAGS DCP
    INDEX 01 52:10:32
  TRACK 10 AUDIO
    TITLE "Fool For Your Loving"
    PERFORMER "Whitesnake"
    REM COMPOSER "Whitesnake"
    FLAGS DCP
    INDEX 01 59:36:15
  TRACK 11 AUDIO
    TITLE "Need Your Love So Bad / Thank You Blues"
    PERFORMER "Whitesnake"
    REM COMPOSER "Whitesnake"
    FLAGS DCP
    INDEX 01 64:31:01
  TRACK 12 AUDIO
    TITLE "Slide It In"
    PERFORMER "Whitesnake"
    REM COMPOSER "Whitesnake"
    FLAGS DCP
    INDEX 01 66:51:58
  TRACK 13 AUDIO
    TITLE "Don't Break My Heart Again"
    PERFORMER "Whitesnake"
    REM COMPOSER "Whitesnake"
    FLAGS DCP
    INDEX 01 70:41:36

CD 6 - Early Ruff Mixes, Original Demos & Obscurities

REM GENRE "Hard Rock"
REM DATE 2019
REM DISCID C411561E
REM COMMENT "ExactAudioCopy v1.3"
PERFORMER "Whitesnake"
TITLE "Slide It In CD6 Ruff Mixes, Demos etc"
REM COMPOSER "Whitesnake"
FILE "Whitesnake - Slide It In CD6 Ruff Mixes, Demos etc.flac" WAVE
  TRACK 01 AUDIO
    TITLE "All Or Nothing (Early Ruff Mixes With Unfinished Lyric)"
    PERFORMER "Whitesnake"
    REM COMPOSER "Whitesnake"
    FLAGS DCP
    INDEX 01 00:00:00
  TRACK 02 AUDIO
    TITLE "Hungry For Love (Early Ruff Mixes With Unfinished Lyric)"
    PERFORMER "Whitesnake"
    REM COMPOSER "Whitesnake"
    FLAGS DCP
    INDEX 01 03:26:47
  TRACK 03 AUDIO
    TITLE "Spit It Out (Early Ruff Mixes With Unfinished Lyric)"
    PERFORMER "Whitesnake"
    REM COMPOSER "Whitesnake"
    FLAGS DCP
    INDEX 01 07:48:67
  TRACK 04 AUDIO
    TITLE "Give Me More Time (Early Ruff Mixes With Unfinished Lyric)"
    PERFORMER "Whitesnake"
    REM COMPOSER "Whitesnake"
    FLAGS DCP
    INDEX 01 12:18:30
  TRACK 05 AUDIO
    TITLE "Slow An' Easy (Early Ruff Mixes With Unfinished Lyric)"
    PERFORMER "Whitesnake"
    REM COMPOSER "Whitesnake"
    FLAGS DCP
    INDEX 01 15:58:02
  TRACK 06 AUDIO
    TITLE "Love Ain’t No Stranger (Early Ruff Mixes With Unfinished Lyric)"
    PERFORMER "Whitesnake"
    REM COMPOSER "Whitesnake"
    FLAGS DCP
    INDEX 01 22:04:24
  TRACK 07 AUDIO
    TITLE "Need Your Love So Bad (feat. Jon Lord) (Instrumental / Early Ruff Mixes With ..."
    PERFORMER "Whitesnake"
    REM COMPOSER "Whitesnake"
    FLAGS DCP
    INDEX 01 26:26:00
  TRACK 08 AUDIO
    TITLE "Slow An' Easy (A Capella Excerpts Remix)"
    PERFORMER "Whitesnake"
    REM COMPOSER "Whitesnake"
    FLAGS DCP
    INDEX 01 29:41:33
  TRACK 09 AUDIO
    TITLE "All Or Nothing (Organ & Drums Excerpts Remix)"
    PERFORMER "Whitesnake"
    REM COMPOSER "Whitesnake"
    FLAGS DCP
    INDEX 01 30:58:52
  TRACK 10 AUDIO
    TITLE "Wheezy Interludes (Various Alcoholic Studio Antics, David And Mel 'Fighting A..."
    PERFORMER "Whitesnake"
    REM COMPOSER "Whitesnake"
    FLAGS DCP
    INDEX 01 32:35:07
  TRACK 11 AUDIO
    TITLE "Slow An' Easy (Original Demo)"
    PERFORMER "Whitesnake"
    REM COMPOSER "Whitesnake"
    FLAGS DCP
    INDEX 01 39:29:13
  TRACK 12 AUDIO
    TITLE "Slide It In (Original Demo)"
    PERFORMER "Whitesnake"
    REM COMPOSER "Whitesnake"
    FLAGS DCP
    INDEX 01 43:22:57
  TRACK 13 AUDIO
    TITLE "Standing In The Shadow (Original Demo)"
    PERFORMER "Whitesnake"
    REM COMPOSER "Whitesnake"
    FLAGS DCP
    INDEX 01 44:06:58
  TRACK 14 AUDIO
    TITLE "All Or Nothing (Original Demo)"
    PERFORMER "Whitesnake"
    REM COMPOSER "Whitesnake"
    FLAGS DCP
    INDEX 01 46:56:45
  TRACK 15 AUDIO
    TITLE "Spit It Out (Original Demo)"
    PERFORMER "Whitesnake"
    REM COMPOSER "Whitesnake"
    FLAGS DCP
    INDEX 01 48:51:42
  TRACK 16 AUDIO
    TITLE "Guilty Of Love (Original Demo)"
    PERFORMER "Whitesnake"
    REM COMPOSER "Whitesnake"
    FLAGS DCP
    INDEX 01 50:12:01
  TRACK 17 AUDIO
    TITLE "Love Ain’t No Stranger (Original Demo)"
    PERFORMER "Whitesnake"
    REM COMPOSER "Whitesnake"
    FLAGS DCP
    INDEX 01 52:33:71
  TRACK 18 AUDIO
    TITLE "Intro To Need Your Love So Bad From David Coverdale"
    PERFORMER "Whitesnake"
    REM COMPOSER "Whitesnake"
    FLAGS DCP
    INDEX 01 53:53:50
  TRACK 19 AUDIO
    TITLE "Need Your Love So Bad (Original Demo)"
    PERFORMER "Whitesnake"
    REM COMPOSER "Whitesnake"
    FLAGS DCP
    INDEX 01 54:26:44
  TRACK 20 AUDIO
    TITLE "Body Heat (Unfinished Symphonies)"
    PERFORMER "Whitesnake"
    REM COMPOSER "Whitesnake"
    FLAGS DCP
    INDEX 01 57:50:39
  TRACK 21 AUDIO
    TITLE "The Gypsy In You (Unfinished Symphonies)"
    PERFORMER "Whitesnake"
    REM COMPOSER "Whitesnake"
    FLAGS DCP
    INDEX 01 60:07:14
  TRACK 22 AUDIO
    TITLE "Lounge Lizards (Unfinished Symphonies)"
    PERFORMER "Whitesnake"
    REM COMPOSER "Whitesnake"
    FLAGS DCP
    INDEX 01 61:54:70
  TRACK 23 AUDIO
    TITLE "Great Riff In The Morning (Unfinished Symphonies)"
    PERFORMER "Whitesnake"
    REM COMPOSER "Whitesnake"
    FLAGS DCP
    INDEX 01 63:41:24
  TRACK 24 AUDIO
    TITLE "The River Song (Unfinished Symphonies)"
    PERFORMER "Whitesnake"
    REM COMPOSER "Whitesnake"
    FLAGS DCP
    INDEX 01 64:04:74
  TRACK 25 AUDIO
    TITLE "Can’t Make A Deal With the Devil (Unfinished Symphonies)"
    PERFORMER "Whitesnake"
    REM COMPOSER "Whitesnake"
    FLAGS DCP
    INDEX 01 65:02:03
  TRACK 26 AUDIO
    TITLE "Prayer For The Dying (Unfinished Symphonies)"
    PERFORMER "Whitesnake"
    REM COMPOSER "Whitesnake"
    FLAGS DCP
    INDEX 01 66:58:04
  TRACK 27 AUDIO
    TITLE "Spend The Night With Me (Unfinished Symphonies)"
    PERFORMER "Whitesnake"
    REM COMPOSER "Whitesnake"
    FLAGS DCP
    INDEX 01 69:13:31
  TRACK 28 AUDIO
    TITLE "So Much To Live For (Unfinished Symphonies)"
    PERFORMER "Whitesnake"
    REM COMPOSER "Whitesnake"
    FLAGS DCP
    INDEX 01 70:41:07
  TRACK 29 AUDIO
    TITLE "Riff Raff Blues (Unfinished Symphonies)"
    PERFORMER "Whitesnake"
    REM COMPOSER "Whitesnake"
    FLAGS DCP
    INDEX 01 71:46:30
  TRACK 30 AUDIO
    TITLE "Thank You Blues (Unfinished Symphonies)"
    PERFORMER "Whitesnake"
    REM COMPOSER "Whitesnake"
    FLAGS DCP
    INDEX 01 73:07:22
-

дополнительная информация:

Весной как и анонсировали переиздание первого в истории WHITESNAKE платинового альбома "Slide It In" в различных вариантах. Самым грандиозным по количеству материала будет "Slide It In: The Ultimate Special Edition", которое будет выпущено на шести аудиодисках и одном DVD и включать в себя ремастированные версии британской и американской версии альбомов, а также массу ранее нереализованного материала (как аудио, так и видео), плюс 60-страничную книгу с редкими фотографиями и памятными элементами тех времен, здесь не хватает только DVD и книги. Помимо этого издания - также в виде двойника с ремастированными американской и британской версиями альбомов, а также рядом бонус-треков. Виниловая версия будет содержать ремастированные американскую и британскую версии альбома, обычный CD только ремастированный американский вариант альбома. Кроме того, все это будет доступно в цифровом варианта. В дополнительной информации раздачи есть бонус-ссылка на новый сингл «Shut Up & Kiss Me» во FLAC - это первый сингл с грядущего альбома «Flesh & Blood», выход которого состоится 10 мая. "Я пытался уйти на пенсию больше раз, чем Синатра, и, похоже, у меня не получилось", - говорит Ковердейл. - "Тур станет для всех нас инъекцией, вдохновляющей на создание новых песен".-бонус ссылка
--
[Profile] [PM]
Display posts from previous:    

The time now is: Today 03:42

All times are GMT



You cannot post new topics in this forum
You cannot reply to topics in this forum
You cannot edit your posts in this forum
You cannot delete your posts in this forum
You cannot vote in polls in this forum
You cannot attach files in this forum
You cannot download files in this forum