(Hard Rock) Whitesnake - Best Ballads(2CD) - 2014 [FLAC, image+.cue, lossless]

 
Автор Сообщение

sergej644 ®

Пол:

Стаж: 4 года 11 месяцев

Сообщений: 6035

Откуда: Soviet Union



Награды: Нет

Торрент-статистика

Создавать темы 20-Июл-2015 09:23

[Цитировать]

-Whitesnake / Best Ballads-- Год издания: 2014
Страна: UK
Жанр: Hard Rock
Продолжительность: 02:37:27-Лейбл издания: EMI Records
Тип альбома: Compilation
Страна-выпуска диска: UK
Формат: FLAC
Битрейт аудио: lossless
Тип рипа: image+.cue
Наличие сканов в содержимом раздачи: да
-

Трэклист

CD 1 || 01:19:02

01.Don't Fade Away (05:03)
02.Say You Love Me (04:22)
03.Is This Love (04:44)
04.Help Me Thro' The Day (04:40)
05.Blindman (05:10)
06.Love Ain`t No Stranger (04:16)
07.Here I Go Again (05:09)
08.Lonely Days, Lonely Nights (04:15)
09.Sailing Ships (06:04)
10.Trouble (04:50)
11.The Last Note Of Free (05:43)
12.Only My Soul (04:37)
13.Hole In The Sky (03:23)
14.Looking For Love (06:34)
15.Ain't No Love In The Heart Of The City (05:14)
16.Love Man (05:05)

CD 2 || 01:18:26

01.Forevermore (07:22)
02.Crying In The Rain (06:01)
03.Too Many Tears (05:45)
04.Summer Rain (06:12)
05.Til The End Of Time (05:36)
06.One Of These Days (04:53)
07.All I Want All I Need (05:42)
08.Easier Said Than Done (05:13)
09.Fare Thee Well (05:18)
10.We Wish You Well (01:36)
11.Stay With Me (04:10)
12.Can't Go On (04:29)
13.Your Precious Love (04:35)
14.Take Me Back Again (06:03)
15.Woman Trouble Blues (05:37)

Лог создания рипа

CD 1

Exact Audio Copy V1.0 beta 3 from 29. August 2011
Отчёт EAC об извлечении, выполненном 19. июля 2015, 14:28
Whitesnake  / Best Ballads [CD 1]
Дисковод: Optiarc DVD RW AD-5200S   Adapter: 3  ID: 0
Режим чтения                 : Достоверность
Использование точного потока : Да
Отключение кэша аудио        : Да
Использование указателей C2  : Нет
Коррекция смещения при чтении                     : 48
Способность читать области Lead-in и Lead-out     : Нет
Заполнение пропущенных сэмплов тишиной            : Да
Удаление блоков с тишиной в начале и конце        : Нет
При вычислениях CRC использовались нулевые сэмплы : Да
Интерфейс                                         : Установленный внешний ASPI-интерфейс
Выходной формат          : Пользовательский кодировщик
Выбранный битрейт        : 32 kBit/s
Качество                 : Высокий
Добавление ID3-тега      : Нет
Утилита сжатия           : C:\Program Files\Exact Audio Copy\FLAC\FLAC.EXE
Дополнительные параметры : -6 -V -T "ARTIST=%artist%" -T "TITLE=%title%" -T "ALBUM=%albumtitle%" -T "DATE=%year%" -T "TRACKNUMBER=%tracknr%" -T "GENRE=%genre%" -T "COMMENT=%comment%" -T "BAND=%albuminterpret%" -T "ALBUMARTIST=%albuminterpret%" -T "COMPOSER=%composer%" %haslyrics%--tag-from-file=LYRICS="%lyricsfile%"%haslyrics% -T "DISCNUMBER=%cdnumber%" -T "TOTALDISCS=%totalcds%" -T "TOTALTRACKS=%numtracks%" %hascover%--picture="%coverfile%"%hascover% %source% -o %dest%
TOC извлечённого CD
     Трек |   Старт  | Длительность | Начальный сектор | Конечный сектор
    ---------------------------------------------------------------------
       1  |  0:00.00 |    5:04.19   |           0      |      22818
       2  |  5:04.19 |    4:23.36   |       22819      |      42579
       3  |  9:27.55 |    4:45.47   |       42580      |      64001
       4  | 14:13.27 |    4:41.44   |       64002      |      85120
       5  | 18:54.71 |    5:11.43   |       85121      |     108488
       6  | 24:06.39 |    4:18.00   |      108489      |     127838
       7  | 28:24.39 |    5:10.65   |      127839      |     151153
       8  | 33:35.29 |    4:16.24   |      151154      |     170377
       9  | 37:51.53 |    6:05.27   |      170378      |     197779
      10  | 43:57.05 |    4:51.03   |      197780      |     219607
      11  | 48:48.08 |    5:44.64   |      219608      |     245471
      12  | 54:32.72 |    4:38.39   |      245472      |     266360
      13  | 59:11.36 |    3:24.57   |      266361      |     281717
      14  | 62:36.18 |    6:35.14   |      281718      |     311356
      15  | 69:11.32 |    5:15.17   |      311357      |     334998
      16  | 74:26.49 |    5:04.20   |      334999      |     357818
Характеристики диапазона извлечения и сообщения об ошибках
Выбранный диапазон
     Имя файла F:\LOSSLESS\Рипы\Whitesnake  - Best Ballads [CD 1].wav
     Пиковый уровень 100.0 %
     Скорость извлечения 4.6 X
     Качество диапазона 100.0 %
     CRC теста 539DD164
     CRC копии 539DD164
     Копирование... OK
Ошибок не произошло
AccurateRip: сводка
Трек  1  отсутствует в базе данных
Трек  2  отсутствует в базе данных
Трек  3  отсутствует в базе данных
Трек  4  отсутствует в базе данных
Трек  5  отсутствует в базе данных
Трек  6  отсутствует в базе данных
Трек  7  отсутствует в базе данных
Трек  8  отсутствует в базе данных
Трек  9  отсутствует в базе данных
Трек 10  отсутствует в базе данных
Трек 11  отсутствует в базе данных
Трек 12  отсутствует в базе данных
Трек 13  отсутствует в базе данных
Трек 14  отсутствует в базе данных
Трек 15  отсутствует в базе данных
Трек 16  отсутствует в базе данных
Ни одного трека нет в базе AccurateRip
Конец отчёта

CD 2

Exact Audio Copy V1.0 beta 3 from 29. August 2011
Отчёт EAC об извлечении, выполненном 19. июля 2015, 15:28
Whitesnake / Best Ballads [CD 2]
Дисковод: Optiarc DVD RW AD-5200S   Adapter: 3  ID: 0
Режим чтения                 : Достоверность
Использование точного потока : Да
Отключение кэша аудио        : Да
Использование указателей C2  : Нет
Коррекция смещения при чтении                     : 48
Способность читать области Lead-in и Lead-out     : Нет
Заполнение пропущенных сэмплов тишиной            : Да
Удаление блоков с тишиной в начале и конце        : Нет
При вычислениях CRC использовались нулевые сэмплы : Да
Интерфейс                                         : Установленный внешний ASPI-интерфейс
Выходной формат          : Пользовательский кодировщик
Выбранный битрейт        : 32 kBit/s
Качество                 : Высокий
Добавление ID3-тега      : Нет
Утилита сжатия           : C:\Program Files\Exact Audio Copy\FLAC\FLAC.EXE
Дополнительные параметры : -6 -V -T "ARTIST=%artist%" -T "TITLE=%title%" -T "ALBUM=%albumtitle%" -T "DATE=%year%" -T "TRACKNUMBER=%tracknr%" -T "GENRE=%genre%" -T "COMMENT=%comment%" -T "BAND=%albuminterpret%" -T "ALBUMARTIST=%albuminterpret%" -T "COMPOSER=%composer%" %haslyrics%--tag-from-file=LYRICS="%lyricsfile%"%haslyrics% -T "DISCNUMBER=%cdnumber%" -T "TOTALDISCS=%totalcds%" -T "TOTALTRACKS=%numtracks%" %hascover%--picture="%coverfile%"%hascover% %source% -o %dest%
TOC извлечённого CD
     Трек |   Старт  | Длительность | Начальный сектор | Конечный сектор
    ---------------------------------------------------------------------
       1  |  0:00.00 |    7:21.64   |           0      |      33138
       2  |  7:21.64 |    6:00.34   |       33139      |      60172
       3  | 13:22.23 |    5:44.65   |       60173      |      86037
       4  | 19:07.13 |    6:11.11   |       86038      |     113873
       5  | 25:18.24 |    5:35.07   |      113874      |     139005
       6  | 30:53.31 |    4:52.64   |      139006      |     160969
       7  | 35:46.20 |    5:41.25   |      160970      |     186569
       8  | 41:27.45 |    5:12.37   |      186570      |     210006
       9  | 46:40.07 |    5:17.58   |      210007      |     233839
      10  | 51:57.65 |    1:34.73   |      233840      |     240962
      11  | 53:32.63 |    4:09.46   |      240963      |     259683
      12  | 57:42.34 |    4:28.24   |      259684      |     279807
      13  | 62:10.58 |    4:34.62   |      279808      |     300419
      14  | 66:45.45 |    6:02.72   |      300420      |     327641
      15  | 72:48.42 |    5:36.67   |      327642      |     352908
Характеристики диапазона извлечения и сообщения об ошибках
Выбранный диапазон
     Имя файла F:\LOSSLESS\Рипы\Whitesnake - Best Ballads [CD 2].wav
     Пиковый уровень 100.0 %
     Скорость извлечения 4.6 X
     Качество диапазона 99.9 %
     CRC теста 89EA8727
     CRC копии 89EA8727
     Копирование... OK
Ошибок не произошло
AccurateRip: сводка
Трек  1  отсутствует в базе данных
Трек  2  отсутствует в базе данных
Трек  3  отсутствует в базе данных
Трек  4  отсутствует в базе данных
Трек  5  отсутствует в базе данных
Трек  6  отсутствует в базе данных
Трек  7  отсутствует в базе данных
Трек  8  отсутствует в базе данных
Трек  9  отсутствует в базе данных
Трек 10  отсутствует в базе данных
Трек 11  отсутствует в базе данных
Трек 12  отсутствует в базе данных
Трек 13  отсутствует в базе данных
Трек 14  отсутствует в базе данных
Трек 15  отсутствует в базе данных
Ни одного трека нет в базе AccurateRip
Конец отчёта

Индексная карта (non-compilant .cue)

CD 1

REM GENRE "Hard Rock"
REM DATE 2014
REM DISCID EF12A210
REM COMMENT "ExactAudioCopy v1.0b3"
PERFORMER "Whitesnake "
TITLE "Best Ballads [CD 1]"
FILE "Whitesnake  - Best Ballads [CD 1].flac" WAVE
  TRACK 01 AUDIO
    TITLE "Don't Fade Away"
    PERFORMER "Whitesnake"
    FLAGS DCP
    INDEX 01 00:00:00
  TRACK 02 AUDIO
    TITLE "Say You Love Me"
    PERFORMER "Whitesnake"
    FLAGS DCP
    INDEX 00 05:02:19
    INDEX 01 05:04:19
  TRACK 03 AUDIO
    TITLE "Is This Love"
    PERFORMER "Whitesnake"
    FLAGS DCP
    INDEX 00 09:25:55
    INDEX 01 09:27:55
  TRACK 04 AUDIO
    TITLE "Help Me Thro' The Day"
    PERFORMER "Whitesnake"
    FLAGS DCP
    INDEX 00 14:11:27
    INDEX 01 14:13:27
  TRACK 05 AUDIO
    TITLE "Blindman"
    PERFORMER "Whitesnake"
    FLAGS DCP
    INDEX 00 18:52:71
    INDEX 01 18:54:71
  TRACK 06 AUDIO
    TITLE "Love Ain`t No Stranger"
    PERFORMER "Whitesnake"
    FLAGS DCP
    INDEX 00 24:04:39
    INDEX 01 24:06:39
  TRACK 07 AUDIO
    TITLE "Here I Go Again"
    PERFORMER "Whitesnake"
    FLAGS DCP
    INDEX 00 28:22:39
    INDEX 01 28:24:39
  TRACK 08 AUDIO
    TITLE "Lonely Days, Lonely Nights"
    PERFORMER "Whitesnake"
    FLAGS DCP
    INDEX 00 33:33:29
    INDEX 01 33:35:29
  TRACK 09 AUDIO
    TITLE "Sailing Ships"
    PERFORMER "Whitesnake"
    FLAGS DCP
    INDEX 00 37:49:53
    INDEX 01 37:51:53
  TRACK 10 AUDIO
    TITLE "Trouble"
    PERFORMER "Whitesnake"
    FLAGS DCP
    INDEX 00 43:55:05
    INDEX 01 43:57:05
  TRACK 11 AUDIO
    TITLE "The Last Note Of Free"
    PERFORMER "Whitesnake"
    FLAGS DCP
    INDEX 00 48:46:08
    INDEX 01 48:48:08
  TRACK 12 AUDIO
    TITLE "Only My Soul"
    PERFORMER "Whitesnake"
    FLAGS DCP
    INDEX 00 54:30:72
    INDEX 01 54:32:72
  TRACK 13 AUDIO
    TITLE "Hole In The Sky"
    PERFORMER "Whitesnake"
    FLAGS DCP
    INDEX 00 59:09:36
    INDEX 01 59:11:36
  TRACK 14 AUDIO
    TITLE "Looking For Love"
    PERFORMER "Whitesnake"
    FLAGS DCP
    INDEX 00 62:34:18
    INDEX 01 62:36:18
  TRACK 15 AUDIO
    TITLE "Ain't No Love In The Heart Of The City"
    PERFORMER "Whitesnake"
    FLAGS DCP
    INDEX 00 69:09:32
    INDEX 01 69:11:32
  TRACK 16 AUDIO
    TITLE "Love Man"
    PERFORMER "Whitesnake"
    FLAGS DCP
    INDEX 00 74:24:49
    INDEX 01 74:26:49

CD 2

REM GENRE "Hard Rock"
REM DATE 2014
REM DISCID C612610F
REM COMMENT "ExactAudioCopy v1.0b3"
PERFORMER "Whitesnake"
TITLE "Best Ballads [CD 2]"
FILE "Whitesnake - Best Ballads [CD 2].flac" WAVE
  TRACK 01 AUDIO
    TITLE "Forevermore"
    PERFORMER "Whitesnake"
    FLAGS DCP
    INDEX 01 00:00:00
  TRACK 02 AUDIO
    TITLE "Crying In The Rain"
    PERFORMER "Whitesnake"
    FLAGS DCP
    INDEX 01 07:21:64
  TRACK 03 AUDIO
    TITLE "Too Many Tears"
    PERFORMER "Whitesnake"
    FLAGS DCP
    INDEX 01 13:22:23
  TRACK 04 AUDIO
    TITLE "Summer Rain"
    PERFORMER "Whitesnake"
    FLAGS DCP
    INDEX 01 19:07:13
  TRACK 05 AUDIO
    TITLE "Til The End Of Time"
    PERFORMER "Whitesnake"
    FLAGS DCP
    INDEX 01 25:18:24
  TRACK 06 AUDIO
    TITLE "One Of These Days"
    PERFORMER "Whitesnake"
    FLAGS DCP
    INDEX 01 30:53:31
  TRACK 07 AUDIO
    TITLE "All I Want All I Need"
    PERFORMER "Whitesnake"
    FLAGS DCP
    INDEX 01 35:46:20
  TRACK 08 AUDIO
    TITLE "Easier Said Than Done"
    PERFORMER "Whitesnake"
    FLAGS DCP
    INDEX 01 41:27:45
  TRACK 09 AUDIO
    TITLE "Fare Thee Well"
    PERFORMER "Whitesnake"
    FLAGS DCP
    INDEX 01 46:40:07
  TRACK 10 AUDIO
    TITLE "We Wish You Well"
    PERFORMER "Whitesnake"
    FLAGS DCP
    INDEX 01 51:57:65
  TRACK 11 AUDIO
    TITLE "Stay With Me"
    PERFORMER "Whitesnake"
    FLAGS DCP
    INDEX 01 53:32:63
  TRACK 12 AUDIO
    TITLE "Can't Go On"
    PERFORMER "Whitesnake"
    FLAGS DCP
    INDEX 01 57:42:34
  TRACK 13 AUDIO
    TITLE "Your Precious Love"
    PERFORMER "Whitesnake"
    FLAGS DCP
    INDEX 01 62:10:58
  TRACK 14 AUDIO
    TITLE "Take Me Back Again"
    PERFORMER "Whitesnake"
    FLAGS DCP
    INDEX 01 66:45:45
  TRACK 15 AUDIO
    TITLE "Woman Trouble Blues"
    PERFORMER "Whitesnake"
    FLAGS DCP
    INDEX 01 72:48:42

Скриншот спектра частот

Не забываем говорить
[Профиль] [ЛС]
Показать сообщения:    

Текущее время: Сегодня 05:01

Часовой пояс: GMT



Вы не можете начинать темы
Вы не можете отвечать на сообщения
Вы не можете редактировать свои сообщения
Вы не можете удалять свои сообщения
Вы не можете голосовать в опросах
Вы не можете прикреплять файлы к сообщениям
Вы не можете скачивать файлы