(Hard Rock) Whitesnake - Whitesnake (Remastered 2015) - 1987 [FLAC, image+.cue, lossless]

 
Автор Сообщение

sergej644 ®

Пол:

Стаж: 4 года 11 месяцев

Сообщений: 6042

Откуда: Soviet Union



Награды: Нет

Торрент-статистика

Создавать темы 11-Авг-2015 21:06

[Цитировать]

-Whitesnake / Whitesnake (Remastered 2015)-- Год издания: 1987
Страна: UK
Жанр: Hard Rock
Продолжительность: 00:52:27-Лейбл издания: Parlophone Records Ltd.
Страна-выпуска диска: EU
Номер по каталогу: 0825646120680
Формат: FLAC
Битрейт аудио: lossless
Тип рипа: image+.cue
Наличие сканов в содержимом раздачи: да
-

Трэклист

01.Still of the Night (06:36)
02.Give Me All Your Love (03:27)
03.Bad Boys (04:04)
04.Is This Love (04:36)
05.Here I Go Again (04:31)
06.Straight for the Heart (03:40)
07.Looking for love (06:22)
08.Children of the Night (04:20)
09.You're Gonna Break My Heart Again (04:11)
10.Crying In The Rain (05:36)
11.Don't Turn Away (05:09)

Лог создания рипа

Exact Audio Copy V1.0 beta 6 from 9. April 2015
Отчёт EAC об извлечении, выполненном 9. августа 2015, 17:06
Whitesnake / Whitesnake 1987 (Remastered)
Дисковод: Optiarc DVD RW AD-7240S   Adapter: 1  ID: 0
Режим чтения                 : Достоверность
Использование точного потока : Да
Отключение кэша аудио        : Нет
Использование указателей C2  : Да
Коррекция смещения при чтении                     : 48
Способность читать области Lead-in и Lead-out     : Нет
Заполнение пропущенных сэмплов тишиной            : Да
Удаление блоков с тишиной в начале и конце        : Нет
При вычислениях CRC использовались нулевые сэмплы : Да
Интерфейс                                         : Встроенный Win32-интерфейс для Win NT/2000
Выходной формат          : Пользовательский кодировщик
Выбранный битрейт        : 1024 kBit/s
Качество                 : Высокий
Добавление ID3-тега      : Да
Утилита сжатия           : C:\Program Files (x86)\Exact Audio Copy\FLAC\FLAC.EXE
Дополнительные параметры : -6 -V -T "ARTIST=%artist%" -T "TITLE=%title%" -T "ALBUM=%albumtitle%" -T "DATE=%year%" -T "TRACKNUMBER=%tracknr%" -T "GENRE=%genre%" -T "COMMENT=%comment%" -T "BAND=%albuminterpret%" -T "ALBUMARTIST=%albuminterpret%" -T "COMPOSER=%composer%" %haslyrics%--tag-from-file=LYRICS="%lyricsfile%"%haslyrics% -T "DISCNUMBER=%cdnumber%" -T "TOTALDISCS=%totalcds%" -T "TOTALTRACKS=%numtracks%" %hascover%--picture="%coverfile%"%hascover% %source% -o %dest%
TOC извлечённого CD
     Трек |   Старт  | Длительность | Начальный сектор | Конечный сектор
    ---------------------------------------------------------------------
       1  |  0:00.00 |    6:35.31   |           0      |      29655
       2  |  6:35.31 |    3:26.48   |       29656      |      45153
       3  | 10:02.04 |    4:03.24   |       45154      |      63402
       4  | 14:05.28 |    4:35.57   |       63403      |      84084
       5  | 18:41.10 |    4:30.12   |       84085      |     104346
       6  | 23:11.22 |    3:39.14   |      104347      |     120785
       7  | 26:50.36 |    6:21.33   |      120786      |     149393
       8  | 33:11.69 |    4:19.63   |      149394      |     168881
       9  | 37:31.57 |    4:10.48   |      168882      |     187679
      10  | 41:42.30 |    5:35.63   |      187680      |     212867
      11  | 47:18.18 |    5:08.32   |      212868      |     235999
Характеристики диапазона извлечения и сообщения об ошибках
Выбранный диапазон
     Имя файла C:\Users\Александр\Desktop\Whitesnake 1987 (Remastered)\Whitesnake - Whitesnake 1987 (Remastered).wav
     Пиковый уровень 100.0 %
     Скорость извлечения 25.5 X
     Качество диапазона 100.0 %
     CRC теста E33FF520
     CRC копии E33FF520
     Копирование... OK
Ошибок не произошло
AccurateRip: сводка
Трек  1  отсутствует в базе данных
Трек  2  отсутствует в базе данных
Трек  3  отсутствует в базе данных
Трек  4  отсутствует в базе данных
Трек  5  отсутствует в базе данных
Трек  6  отсутствует в базе данных
Трек  7  отсутствует в базе данных
Трек  8  отсутствует в базе данных
Трек  9  отсутствует в базе данных
Трек 10  отсутствует в базе данных
Трек 11  отсутствует в базе данных
Ни одного трека нет в базе AccurateRip
Конец отчёта
---- CUETools DB Plugin V2.1.6
[CTDB TOCID: uFcGg5Mt51q9ioJaqHFnUbd.w.Q-] found
Submit result: uFcGg5Mt51q9ioJaqHFnUbd.w.Q- has been confirmed
Track | CTDB Status
  1   | (1/1) Accurately ripped
  2   | (1/1) Accurately ripped
  3   | (1/1) Accurately ripped
  4   | (1/1) Accurately ripped
  5   | (1/1) Accurately ripped
  6   | (1/1) Accurately ripped
  7   | (1/1) Accurately ripped
  8   | (1/1) Accurately ripped
  9   | (1/1) Accurately ripped
10   | (1/1) Accurately ripped
11   | (1/1) Accurately ripped
------------------------------------------------------------
Exact Audio Copy V1.0 beta 6 from 9. April 2015
Отчёт EAC об извлечении, выполненном 9. августа 2015, 17:06
Whitesnake / Whitesnake 1987 (Remastered)
Дисковод: Optiarc DVD RW AD-7240S   Adapter: 1  ID: 0
Режим чтения                 : Достоверность
Использование точного потока : Да
Отключение кэша аудио        : Нет
Использование указателей C2  : Да
Коррекция смещения при чтении                     : 48
Способность читать области Lead-in и Lead-out     : Нет
Заполнение пропущенных сэмплов тишиной            : Да
Удаление блоков с тишиной в начале и конце        : Нет
При вычислениях CRC использовались нулевые сэмплы : Да
Интерфейс                                         : Встроенный Win32-интерфейс для Win NT/2000
Выходной формат          : Пользовательский кодировщик
Выбранный битрейт        : 1024 kBit/s
Качество                 : Высокий
Добавление ID3-тега      : Да
Утилита сжатия           : C:\Program Files (x86)\Exact Audio Copy\FLAC\FLAC.EXE
Дополнительные параметры : -6 -V -T "ARTIST=%artist%" -T "TITLE=%title%" -T "ALBUM=%albumtitle%" -T "DATE=%year%" -T "TRACKNUMBER=%tracknr%" -T "GENRE=%genre%" -T "COMMENT=%comment%" -T "BAND=%albuminterpret%" -T "ALBUMARTIST=%albuminterpret%" -T "COMPOSER=%composer%" %haslyrics%--tag-from-file=LYRICS="%lyricsfile%"%haslyrics% -T "DISCNUMBER=%cdnumber%" -T "TOTALDISCS=%totalcds%" -T "TOTALTRACKS=%numtracks%" %hascover%--picture="%coverfile%"%hascover% %source% -o %dest%
TOC извлечённого CD
     Трек |   Старт  | Длительность | Начальный сектор | Конечный сектор
    ---------------------------------------------------------------------
       1  |  0:00.00 |    6:35.31   |           0      |      29655
       2  |  6:35.31 |    3:26.48   |       29656      |      45153
       3  | 10:02.04 |    4:03.24   |       45154      |      63402
       4  | 14:05.28 |    4:35.57   |       63403      |      84084
       5  | 18:41.10 |    4:30.12   |       84085      |     104346
       6  | 23:11.22 |    3:39.14   |      104347      |     120785
       7  | 26:50.36 |    6:21.33   |      120786      |     149393
       8  | 33:11.69 |    4:19.63   |      149394      |     168881
       9  | 37:31.57 |    4:10.48   |      168882      |     187679
      10  | 41:42.30 |    5:35.63   |      187680      |     212867
      11  | 47:18.18 |    5:08.32   |      212868      |     235999
Характеристики диапазона извлечения и сообщения об ошибках
Выбранный диапазон
     Имя файла C:\Users\Александр\Desktop\Whitesnake 1987 (Remastered)\Whitesnake - Whitesnake 1987 (Remastered).wav
     Пиковый уровень 100.0 %
     Скорость извлечения 25.5 X
     Качество диапазона 100.0 %
     CRC теста E33FF520
     CRC копии E33FF520
     Копирование... OK
Ошибок не произошло
AccurateRip: сводка
Трек  1  отсутствует в базе данных
Трек  2  отсутствует в базе данных
Трек  3  отсутствует в базе данных
Трек  4  отсутствует в базе данных
Трек  5  отсутствует в базе данных
Трек  6  отсутствует в базе данных
Трек  7  отсутствует в базе данных
Трек  8  отсутствует в базе данных
Трек  9  отсутствует в базе данных
Трек 10  отсутствует в базе данных
Трек 11  отсутствует в базе данных
Ни одного трека нет в базе AccurateRip
Конец отчёта

Индексная карта (non-compilant .cue)

REM GENRE "Hard Rock"
REM DATE 2015
REM DISCID 8E0C4A0B
REM COMMENT "ExactAudioCopy v1.0b6"
PERFORMER "Whitesnake"
TITLE "Whitesnake 1987 (Remastered)"
FILE "Whitesnake - Whitesnake 1987 (Remastered).flac" WAVE
  TRACK 01 AUDIO
    TITLE "Still of the Night"
    PERFORMER "Whitesnake"
    INDEX 01 00:00:00
  TRACK 02 AUDIO
    TITLE "Give Me All Your Love"
    PERFORMER "Whitesnake"
    INDEX 01 06:35:31
  TRACK 03 AUDIO
    TITLE "Bad Boys"
    PERFORMER "Whitesnake"
    INDEX 01 10:02:04
  TRACK 04 AUDIO
    TITLE "Is This Love"
    PERFORMER "Whitesnake"
    INDEX 01 14:05:28
  TRACK 05 AUDIO
    TITLE "Here I Go Again"
    PERFORMER "Whitesnake"
    INDEX 01 18:41:10
  TRACK 06 AUDIO
    TITLE "Straight for the Heart"
    PERFORMER "Whitesnake"
    INDEX 01 23:11:22
  TRACK 07 AUDIO
    TITLE "Looking for love"
    PERFORMER "Whitesnake"
    INDEX 01 26:50:36
  TRACK 08 AUDIO
    TITLE "Children of the Night"
    PERFORMER "Whitesnake"
    INDEX 01 33:11:69
  TRACK 09 AUDIO
    TITLE "You're Gonna Break My Heart Again"
    PERFORMER "Whitesnake"
    INDEX 01 37:31:57
  TRACK 10 AUDIO
    TITLE "Crying In The Rain"
    PERFORMER "Whitesnake"
    INDEX 01 41:42:30
  TRACK 11 AUDIO
    TITLE "Don't Turn Away"
    PERFORMER "Whitesnake"
    INDEX 01 47:18:18

Об альбоме (сборнике)

Whitesnake (в Европе выпущен под названием 1987) — седьмой альбом группы Whitesnake. Самый коммерчески успешный альбом группы, ставший 8 раз платиновым, добравшийся до 2 места в Billboard 200 и 8 места в английском чарте альбомов.
В 1984 году Дэвиду Ковердэйлу позвонил глава фирмы Geffen Дэвид Геффен и предложил артисту переориентироваться на американский рынок. Ковердейлу терять было нечего, группа его уже фактически распалась, брак рушился и певец перебрался в США, где Геффен предложил Ковердейлу поработать с гитаристом Джоном Сайксом.
Весной 1985 года Ковердейл и Сайкс при помощи басиста Нила Маррея начали работу над альбомом в городке на юге Франции. В результате были написаны две песни: Still of the Night, которая базировалась на старой демозаписи Ковердейла и Ричи Блэкмора и Is this Love, которая была сочинена Ковердейлом ранее для Тины Тёрнер.
Вернувшись в Лос-Анджелес, группа после прослушивания 60 барабанщиков, нашла, наконец, подходящего — им стал Эйнсли Данбар, после чего группа перебралась в Ванкувер и приступила к записи альбома. Однако вирусная инфекция на полгода выбила из колеи Ковердейла, и когда он вернулся, он обнаружил, что у него снова нет группы и вместе с ней и продюсера Майка Стоуна. Впрочем, почти все партии уже были записаны, на них наложен был вокал и клавишные, а также была записана новая версия хита группы 1982 года Here I Go Again с помощью гитариста Адриана Ванденберга.
Вышедший альбом стал самым успешным в истории Whitesnake, сочетая коммерчески успешную мелодичность и отчасти довольно жёсткую ритмическую основу.
Все песни написаны Дэвидом Ковердэйлом и Джоном Сайксом исключая Here I Go Again, написанную Ковердэйлом в соавторстве с Берни Марсденом.

Состав

David Coverdale – lead vocals
John Sykes – guitars, backing vocals
Neil Murray – bass
Aynsley Dunbar – drums, percussion
--Не забываем говорить
[Профиль] [ЛС]
Показать сообщения:    

Текущее время: Сегодня 08:57

Часовой пояс: GMT



Вы не можете начинать темы
Вы не можете отвечать на сообщения
Вы не можете редактировать свои сообщения
Вы не можете удалять свои сообщения
Вы не можете голосовать в опросах
Вы не можете прикреплять файлы к сообщениям
Вы не можете скачивать файлы