(Pop, Pop Rock, Synth Pop) Wet Wet Wet - Picture This (3CD Super Deluxe Box Set Virgin Records 2015) - 1995 | 2015 [FLAC, image+.cue, lossless]

 
Автор Сообщение

sergej644 ®

Пол:

Стаж: 4 года 11 месяцев

Сообщений: 6046

Откуда: Soviet Union



Награды: Нет

Торрент-статистика

Создавать темы 25-Дек-2015 13:46

[Цитировать]

-Wet Wet Wet / Picture This (3CD Super Deluxe Box Set Virgin Records 2015)-- Год | Год издания: 1995 | 2015
Страна: Scotland
Жанр: Pop, Pop Rock, Synth Pop
Продолжительность: 03:16:47-Лейбл издания: Virgin EMI Records / Universal Music
Страна-выпуска диска: EU
Номер по каталогу: 00602547396273
Формат: FLAC
Битрейт аудио: lossless
Тип рипа: image+.cue
Наличие сканов в содержимом раздачи: да
-

Трэклист

CD 1 | 00:45:14

01.Julia Says (04:11)
02.After The Love Goes (03:51)
03.Somewhere Somehow (03:52)
04.Gypsy Girl (02:12)
05.Don't Want To Forgive Me Now (02:56)
06.She Might Never Know (04:45)
07.Someone Like You (03:50)
08.Love Is My Shepherd (03:22)
09.She's All On My Mind (03:57)
10.Morning (04:09)
11.Home Tonight (04:08)
12.Love Is All Around (04:07)

CD 2 | 01:15:25

01.I Can Give You Everything (7’’ Arthur Baker House Remix) (04:25)
02.Morning (Youth 1995 Remix) (03:59)
03.Dixie (03:20)
04.Ain’t No Stoppin’ / Le Freak (Live From Wembley Arena, 11 December 1993) (05:40)
05.Is This Love (Live From Wembley Arena, 11 December 1993) (05:20)
06.Roll ‘Um Easy (Live From The London Arena, June 1995) (03:09)
07.Celebration (Live From Wembley Arena, June 1995) (03:50)
08.Somewhere Somehow (Live From Glasgow SECC, July 1995) (04:18)
09.She Might Never Know (Live From Sheffield Arena, June 1995) (03:57)
10.All You Need Is Love (Live From Glasgow SECC, July 1995) (05:37)
11.She’s All On My Mind (Live From Newcastle Arena, December 1995) (05:44)
12.Julia Says (Live From Jakarta Plenary Hall, 4 October 1995) (04:09)
13.Goodnight Girl ( Live From Melbourne The Carousel, 25 September 1994) (04:26)
14.Home Tonight (Demo Version) (03:08)
15.Gypsy Girl (Demo Version) (02:17)
16.After The Love Goes (Demo Version) (04:31)
17.Morning V1 ( Demo Version 1) (03:32)
18.Morning V2 ( Demo Version 2) (04:09)

CD 3 | 01:16:09

01.Julia Says (Live From The Tarlair Music Festival, 26 June 1994) (04:48)
02.In The Ghetto (Live From BBC1 Comic Relief, 17 March 1995) (03:25)
03.Angel Eyes (Live Acoustic Session From BBC Radio 1, 17 March 1995) (03:05)
04.Julia Says (Live Acoustic Session From BBC Radio 1, 17 March 1995) (02:55)
05.Gypsy Girl (Live Acoustic Session From BBC Radio 1, 17 March 1995) (02:45)
06.Somewhere Somehow (Live From The BBC Hippodrome, 3 April 1995) (04:09)
07.East Of The River (Live From The BBC Hippodrome, 3 April 1995) (03:59)
08.I Can Give You Everything (Live From The BBC Hippodrome, 3 April 1995) (04:12)
09.Wishing I Was Lucky (Live From The BBC Hippodrome, 3 April 1995) (03:56)
10.Julia Says (Live From The BBC Hippodrome, 3 April 1995) (04:10)
11.Goodnight Girl (Live From The BBC Hippodrome, 3 April 1995) (04:07)
12.Lip Service (Live From The BBC Hippodrome, 3 April 1995) (05:13)
13.Temptation (Live From The BBC Hippodrome, 3 April 1995) (04:46)
14.Love Is All Around (Live From The BBC Hippodrome, 3 April 1995) (04:30)
15.Love Is My Shepherd (Live From Dubai Congress Centre, 17 October 1995) (03:32)
16.Pulling Mussels From The Shell (Live From Wembley Arena, 5 December 1995) (04:04)
17.Hourglass (Live From Wembley Arena, 5 December 1995) (04:10)
18.Morning (Live From Glasgow SECC, July 1995) (04:57)
19.It’s Now Or Never (Live From Elvis: The Tribute, Memphis Pyramid, 8 October 1... (03:35)
-

Лог создания рипа

CD 1

Exact Audio Copy V1.1 from 23. June 2015
EAC extraction logfile from 8. December 2015, 20:00
Wet Wet Wet / Picture This CD1
Used drive  : PLEXTOR BD-R  PX-B950SA   Adapter: 1  ID: 1
Read mode               : Secure
Utilize accurate stream : Yes
Defeat audio cache      : Yes
Make use of C2 pointers : No
Read offset correction                      : 6
Overread into Lead-In and Lead-Out          : No
Fill up missing offset samples with silence : Yes
Delete leading and trailing silent blocks   : No
Null samples used in CRC calculations       : Yes
Used interface                              : Native Win32 interface for Win NT & 2000
Used output format : Internal WAV Routines
Sample format      : 44.100 Hz; 16 Bit; Stereo
TOC of the extracted CD
     Track |   Start  |  Length  | Start sector | End sector
    ---------------------------------------------------------
        1  |  0:00.00 |  4:10.12 |         0    |    18761
        2  |  4:10.12 |  3:50.27 |     18762    |    36038
        3  |  8:00.39 |  3:51.19 |     36039    |    53382
        4  | 11:51.58 |  2:11.63 |     53383    |    63270
        5  | 14:03.46 |  2:55.67 |     63271    |    76462
        6  | 16:59.38 |  4:44.50 |     76463    |    97812
        7  | 21:44.13 |  3:49.19 |     97813    |   115006
        8  | 25:33.32 |  3:21.60 |    115007    |   130141
        9  | 28:55.17 |  3:56.01 |    130142    |   147842
       10  | 32:51.18 |  4:08.66 |    147843    |   166508
       11  | 37:00.09 |  4:07.08 |    166509    |   185041
       12  | 41:07.17 |  4:06.18 |    185042    |   203509
Range status and errors
Selected range
     Filename C:\Users\Meijin\Desktop\Lossless Galaxy ALLexxess\Wet Wet Wet\1995 Picture This (3CD + DVD Box Set Virgin EMI Records 2015)\CD1\Wet Wet Wet - Picture This CD1.wav
     Peak level 100.0 %
     Extraction speed 6.8 X
     Range quality 99.9 %
     Test CRC 4A86B3BC
     Copy CRC 4A86B3BC
     Copy OK
No errors occurred
AccurateRip summary
Track  1  accurately ripped (confidence 1)  [AF7C802B]  (AR v2)
Track  2  accurately ripped (confidence 1)  [79079383]  (AR v2)
Track  3  accurately ripped (confidence 1)  [CA7EA365]  (AR v2)
Track  4  accurately ripped (confidence 1)  [0FCECB79]  (AR v2)
Track  5  accurately ripped (confidence 1)  [8656AF64]  (AR v2)
Track  6  accurately ripped (confidence 1)  [D1DA6D39]  (AR v2)
Track  7  accurately ripped (confidence 1)  [BE790413]  (AR v2)
Track  8  accurately ripped (confidence 1)  [67596A33]  (AR v2)
Track  9  accurately ripped (confidence 1)  [3537FC4F]  (AR v2)
Track 10  accurately ripped (confidence 1)  [B0C526DA]  (AR v2)
Track 11  accurately ripped (confidence 1)  [A7DCAAF5]  (AR v2)
Track 12  accurately ripped (confidence 1)  [BBFDCA13]  (AR v2)
All tracks accurately ripped
End of status report
---- CUETools DB Plugin V2.1.6
[CTDB TOCID: s5_SJRl64pKdC1YK_aUhALEVmOg-] found
Submit result: s5_SJRl64pKdC1YK_aUhALEVmOg- has been confirmed
Track | CTDB Status
  1   | (1/1) Accurately ripped
  2   | (1/1) Accurately ripped
  3   | (1/1) Accurately ripped
  4   | (1/1) Accurately ripped
  5   | (1/1) Accurately ripped
  6   | (1/1) Accurately ripped
  7   | (1/1) Accurately ripped
  8   | (1/1) Accurately ripped
  9   | (1/1) Accurately ripped
10   | (1/1) Accurately ripped
11   | (1/1) Accurately ripped
12   | (1/1) Accurately ripped

CD 2

Exact Audio Copy V1.1 from 23. June 2015
EAC extraction logfile from 8. December 2015, 19:33
Wet Wet Wet / Picture This CD2
Used drive  : Optiarc DVD RW AD-7280S   Adapter: 1  ID: 0
Read mode               : Secure
Utilize accurate stream : Yes
Defeat audio cache      : Yes
Make use of C2 pointers : No
Read offset correction                      : 48
Overread into Lead-In and Lead-Out          : No
Fill up missing offset samples with silence : Yes
Delete leading and trailing silent blocks   : No
Null samples used in CRC calculations       : Yes
Used interface                              : Native Win32 interface for Win NT & 2000
Used output format : Internal WAV Routines
Sample format      : 44.100 Hz; 16 Bit; Stereo
TOC of the extracted CD
     Track |   Start  |  Length  | Start sector | End sector
    ---------------------------------------------------------
        1  |  0:00.00 |  4:24.42 |         0    |    19841
        2  |  4:24.42 |  3:58.69 |     19842    |    37760
        3  |  8:23.36 |  3:19.49 |     37761    |    52734
        4  | 11:43.10 |  5:39.32 |     52735    |    78191
        5  | 17:22.42 |  5:19.74 |     78192    |   102190
        6  | 22:42.41 |  3:08.42 |    102191    |   116332
        7  | 25:51.08 |  3:49.04 |    116333    |   133511
        8  | 29:40.12 |  4:17.35 |    133512    |   152821
        9  | 33:57.47 |  3:56.35 |    152822    |   170556
       10  | 37:54.07 |  5:36.65 |    170557    |   195821
       11  | 43:30.72 |  5:43.59 |    195822    |   221605
       12  | 49:14.56 |  4:08.60 |    221606    |   240265
       13  | 53:23.41 |  4:25.64 |    240266    |   260204
       14  | 57:49.30 |  3:07.66 |    260205    |   274295
       15  | 60:57.21 |  2:16.69 |    274296    |   284564
       16  | 63:14.15 |  4:30.24 |    284565    |   304838
       17  | 67:44.39 |  3:31.41 |    304839    |   320704
       18  | 71:16.05 |  4:08.66 |    320705    |   339370
Range status and errors
Selected range
     Filename C:\Users\Meijin\Desktop\Lossless Galaxy ALLexxess\Wet Wet Wet\1995 Picture This (3CD + DVD Box Set Virgin EMI Records 2015)\CD2\Wet Wet Wet - Picture This CD2.wav
     Peak level 100.0 %
     Extraction speed 4.6 X
     Range quality 100.0 %
     Test CRC D21BD03E
     Copy CRC D21BD03E
     Copy OK
No errors occurred
AccurateRip summary
Track  1  accurately ripped (confidence 1)  [F3FD9D5D]  (AR v2)
Track  2  accurately ripped (confidence 1)  [30F594C3]  (AR v2)
Track  3  accurately ripped (confidence 1)  [08403254]  (AR v2)
Track  4  accurately ripped (confidence 1)  [205ABB14]  (AR v2)
Track  5  accurately ripped (confidence 1)  [F53E77CD]  (AR v2)
Track  6  accurately ripped (confidence 1)  [74352B43]  (AR v2)
Track  7  accurately ripped (confidence 1)  [92E3B8E6]  (AR v2)
Track  8  accurately ripped (confidence 1)  [58BB6F5D]  (AR v2)
Track  9  accurately ripped (confidence 1)  [3619C1B1]  (AR v2)
Track 10  accurately ripped (confidence 1)  [9D1AFF8D]  (AR v2)
Track 11  accurately ripped (confidence 1)  [A5312176]  (AR v2)
Track 12  accurately ripped (confidence 1)  [1AEE782A]  (AR v2)
Track 13  accurately ripped (confidence 1)  [F7B5B55E]  (AR v2)
Track 14  accurately ripped (confidence 1)  [06109D83]  (AR v2)
Track 15  accurately ripped (confidence 1)  [FE4F1877]  (AR v2)
Track 16  accurately ripped (confidence 1)  [7C5D6D26]  (AR v2)
Track 17  accurately ripped (confidence 1)  [1E4CC41F]  (AR v2)
Track 18  accurately ripped (confidence 1)  [E040F2ED]  (AR v2)
All tracks accurately ripped
End of status report
---- CUETools DB Plugin V2.1.6
[CTDB TOCID: y_BEXg0uXizm3iy6XGScu._oD8s-] found
Submit result: y_BEXg0uXizm3iy6XGScu._oD8s- has been confirmed
Track | CTDB Status
  1   | (1/1) Accurately ripped
  2   | (1/1) Accurately ripped
  3   | (1/1) Accurately ripped
  4   | (1/1) Accurately ripped
  5   | (1/1) Accurately ripped
  6   | (1/1) Accurately ripped
  7   | (1/1) Accurately ripped
  8   | (1/1) Accurately ripped
  9   | (1/1) Accurately ripped
10   | (1/1) Accurately ripped
11   | (1/1) Accurately ripped
12   | (1/1) Accurately ripped
13   | (1/1) Accurately ripped
14   | (1/1) Accurately ripped
15   | (1/1) Accurately ripped
16   | (1/1) Accurately ripped
17   | (1/1) Accurately ripped
18   | (1/1) Accurately ripped

CD 3

Exact Audio Copy V1.1 from 23. June 2015
EAC extraction logfile from 7. December 2015, 20:15
Wet Wet Wet / Picture This CD3
Used drive  : Optiarc DVD RW AD-7280S   Adapter: 1  ID: 0
Read mode               : Secure
Utilize accurate stream : Yes
Defeat audio cache      : Yes
Make use of C2 pointers : No
Read offset correction                      : 48
Overread into Lead-In and Lead-Out          : No
Fill up missing offset samples with silence : Yes
Delete leading and trailing silent blocks   : No
Null samples used in CRC calculations       : Yes
Used interface                              : Native Win32 interface for Win NT & 2000
Used output format : Internal WAV Routines
Sample format      : 44.100 Hz; 16 Bit; Stereo
TOC of the extracted CD
     Track |   Start  |  Length  | Start sector | End sector
    ---------------------------------------------------------
        1  |  0:00.00 |  4:47.26 |         0    |    21550
        2  |  4:47.26 |  3:24.73 |     21551    |    36923
        3  |  8:12.24 |  3:04.29 |     36924    |    50752
        4  | 11:16.53 |  2:54.65 |     50753    |    63867
        5  | 14:11.43 |  2:44.59 |     63868    |    76226
        6  | 16:56.27 |  4:08.02 |     76227    |    94828
        7  | 21:04.29 |  3:58.33 |     94829    |   112711
        8  | 25:02.62 |  4:11.11 |    112712    |   131547
        9  | 29:13.73 |  3:55.71 |    131548    |   149243
       10  | 33:09.69 |  4:09.46 |    149244    |   167964
       11  | 37:19.40 |  4:06.66 |    167965    |   186480
       12  | 41:26.31 |  5:12.16 |    186481    |   209896
       13  | 46:38.47 |  4:45.23 |    209897    |   231294
       14  | 51:23.70 |  4:29.32 |    231295    |   251501
       15  | 55:53.27 |  3:31.03 |    251502    |   267329
       16  | 59:24.30 |  4:03.46 |    267330    |   285600
       17  | 63:28.01 |  4:09.11 |    285601    |   304286
       18  | 67:37.12 |  4:56.32 |    304287    |   326518
       19  | 72:33.44 |  3:34.42 |    326519    |   342610
Range status and errors
Selected range
     Filename C:\Users\Meijin\Desktop\Lossless Galaxy ALLexxess\Wet Wet Wet\1995 Picture This (3CD + DVD Box Set Virgin EMI Records 2015)\CD3\Wet Wet Wet - Picture This CD3.wav
     Peak level 100.0 %
     Extraction speed 4.6 X
     Range quality 100.0 %
     Test CRC F5276B47
     Copy CRC F5276B47
     Copy OK
No errors occurred
AccurateRip summary
Track  1  accurately ripped (confidence 1)  [2B2A4446]  (AR v2)
Track  2  accurately ripped (confidence 1)  [E85A628E]  (AR v2)
Track  3  accurately ripped (confidence 1)  [06679865]  (AR v2)
Track  4  accurately ripped (confidence 1)  [65581A67]  (AR v2)
Track  5  accurately ripped (confidence 1)  [A264E329]  (AR v2)
Track  6  accurately ripped (confidence 1)  [70834792]  (AR v2)
Track  7  accurately ripped (confidence 1)  [8722BBCF]  (AR v2)
Track  8  accurately ripped (confidence 1)  [56A2FF51]  (AR v2)
Track  9  accurately ripped (confidence 1)  [15495279]  (AR v2)
Track 10  accurately ripped (confidence 1)  [6C96197D]  (AR v2)
Track 11  accurately ripped (confidence 1)  [8F5D35D1]  (AR v2)
Track 12  accurately ripped (confidence 1)  [B35B30B7]  (AR v2)
Track 13  accurately ripped (confidence 1)  [21534A2E]  (AR v2)
Track 14  accurately ripped (confidence 1)  [09183C71]  (AR v2)
Track 15  accurately ripped (confidence 1)  [6133087A]  (AR v2)
Track 16  accurately ripped (confidence 1)  [3C797BBD]  (AR v2)
Track 17  accurately ripped (confidence 1)  [02789FA0]  (AR v2)
Track 18  accurately ripped (confidence 1)  [69863F83]  (AR v2)
Track 19  accurately ripped (confidence 1)  [1A7966D9]  (AR v2)
All tracks accurately ripped
End of status report
---- CUETools DB Plugin V2.1.6
[CTDB TOCID: xal5FRogKF3i.C2BWz.KLQNo160-] found
Submit result: xal5FRogKF3i.C2BWz.KLQNo160- has been confirmed
Track | CTDB Status
  1   | (1/1) Accurately ripped
  2   | (1/1) Accurately ripped
  3   | (1/1) Accurately ripped
  4   | (1/1) Accurately ripped
  5   | (1/1) Accurately ripped
  6   | (1/1) Accurately ripped
  7   | (1/1) Accurately ripped
  8   | (1/1) Accurately ripped
  9   | (1/1) Accurately ripped
10   | (1/1) Accurately ripped
11   | (1/1) Accurately ripped
12   | (1/1) Accurately ripped
13   | (1/1) Accurately ripped
14   | (1/1) Accurately ripped
15   | (1/1) Accurately ripped
16   | (1/1) Accurately ripped
17   | (1/1) Accurately ripped
18   | (1/1) Accurately ripped
19   | (1/1) Accurately ripped

Индексная карта (non-compilant .cue)

CD 1

REM GENRE "Pop Rock / Synth Pop"
REM DATE 1995
REM DISCID 940A990C
REM COMMENT "ExactAudioCopy v1.1"
PERFORMER "Wet Wet Wet"
TITLE "Picture This CD1"
FILE "Wet Wet Wet - Picture This CD1.flac" WAVE
  TRACK 01 AUDIO
    TITLE "Julia Says"
    PERFORMER "Wet Wet Wet"
    INDEX 01 00:00:00
  TRACK 02 AUDIO
    TITLE "After The Love Goes"
    PERFORMER "Wet Wet Wet"
    INDEX 00 04:08:33
    INDEX 01 04:10:12
  TRACK 03 AUDIO
    TITLE "Somewhere Somehow"
    PERFORMER "Wet Wet Wet"
    INDEX 00 08:00:15
    INDEX 01 08:00:39
  TRACK 04 AUDIO
    TITLE "Gypsy Girl"
    PERFORMER "Wet Wet Wet"
    INDEX 01 11:51:58
  TRACK 05 AUDIO
    TITLE "Don't Want To Forgive Me Now"
    PERFORMER "Wet Wet Wet"
    INDEX 01 14:03:46
  TRACK 06 AUDIO
    TITLE "She Might Never Know"
    PERFORMER "Wet Wet Wet"
    INDEX 01 16:59:38
  TRACK 07 AUDIO
    TITLE "Someone Like You"
    PERFORMER "Wet Wet Wet"
    INDEX 01 21:44:13
  TRACK 08 AUDIO
    TITLE "Love Is My Shepherd"
    PERFORMER "Wet Wet Wet"
    INDEX 01 25:33:32
  TRACK 09 AUDIO
    TITLE "She's All On My Mind"
    PERFORMER "Wet Wet Wet"
    INDEX 01 28:55:17
  TRACK 10 AUDIO
    TITLE "Morning"
    PERFORMER "Wet Wet Wet"
    INDEX 01 32:51:18
  TRACK 11 AUDIO
    TITLE "Home Tonight"
    PERFORMER "Wet Wet Wet"
    INDEX 00 36:59:24
    INDEX 01 37:00:09
  TRACK 12 AUDIO
    TITLE "Love Is All Around"
    PERFORMER "Wet Wet Wet"
    INDEX 01 41:07:17

CD 2

REM GENRE "Pop Rock / Synth Pop"
REM DATE 2015
REM DISCID 0C11AC12
REM COMMENT "ExactAudioCopy v1.1"
PERFORMER "Wet Wet Wet"
TITLE "Picture This CD2"
FILE "Wet Wet Wet - Picture This CD2.flac" WAVE
  TRACK 01 AUDIO
    TITLE "I Can Give You Everything (7’’ Arthur Baker House Remix)"
    PERFORMER "Wet Wet Wet"
    INDEX 01 00:00:00
  TRACK 02 AUDIO
    TITLE "Morning (Youth 1995 Remix)"
    PERFORMER "Wet Wet Wet"
    INDEX 00 04:23:60
    INDEX 01 04:24:42
  TRACK 03 AUDIO
    TITLE "Dixie"
    PERFORMER "Wet Wet Wet"
    INDEX 00 08:22:54
    INDEX 01 08:23:36
  TRACK 04 AUDIO
    TITLE "Ain’t No Stoppin’ / Le Freak (Live From Wembley Arena, 11 December 1993)"
    PERFORMER "Wet Wet Wet"
    INDEX 00 11:42:28
    INDEX 01 11:43:10
  TRACK 05 AUDIO
    TITLE "Is This Love (Live From Wembley Arena, 11 December 1993)"
    PERFORMER "Wet Wet Wet"
    INDEX 00 17:21:60
    INDEX 01 17:22:42
  TRACK 06 AUDIO
    TITLE "Roll ‘Um Easy (Live From The London Arena, June 1995)"
    PERFORMER "Wet Wet Wet"
    INDEX 00 22:41:59
    INDEX 01 22:42:41
  TRACK 07 AUDIO
    TITLE "Celebration (Live From Wembley Arena, June 1995)"
    PERFORMER "Wet Wet Wet"
    INDEX 00 25:50:26
    INDEX 01 25:51:08
  TRACK 08 AUDIO
    TITLE "Somewhere Somehow (Live From Glasgow SECC, July 1995)"
    PERFORMER "Wet Wet Wet"
    INDEX 00 29:39:30
    INDEX 01 29:40:12
  TRACK 09 AUDIO
    TITLE "She Might Never Know (Live From Sheffield Arena, June 1995)"
    PERFORMER "Wet Wet Wet"
    INDEX 00 33:56:65
    INDEX 01 33:57:47
  TRACK 10 AUDIO
    TITLE "All You Need Is Love (Live From Glasgow SECC, July 1995)"
    PERFORMER "Wet Wet Wet"
    INDEX 00 37:53:25
    INDEX 01 37:54:07
  TRACK 11 AUDIO
    TITLE "She’s All On My Mind (Live From Newcastle Arena, December 1995)"
    PERFORMER "Wet Wet Wet"
    INDEX 00 43:30:15
    INDEX 01 43:30:72
  TRACK 12 AUDIO
    TITLE "Julia Says (Live From Jakarta Plenary Hall, 4 October 1995)"
    PERFORMER "Wet Wet Wet"
    INDEX 00 49:12:74
    INDEX 01 49:14:56
  TRACK 13 AUDIO
    TITLE "Goodnight Girl ( Live From Melbourne The Carousel, 25 September 1994)"
    PERFORMER "Wet Wet Wet"
    INDEX 00 53:22:59
    INDEX 01 53:23:41
  TRACK 14 AUDIO
    TITLE "Home Tonight (Demo Version)"
    PERFORMER "Wet Wet Wet"
    INDEX 00 57:48:48
    INDEX 01 57:49:30
  TRACK 15 AUDIO
    TITLE "Gypsy Girl (Demo Version)"
    PERFORMER "Wet Wet Wet"
    INDEX 00 60:56:39
    INDEX 01 60:57:21
  TRACK 16 AUDIO
    TITLE "After The Love Goes (Demo Version)"
    PERFORMER "Wet Wet Wet"
    INDEX 00 63:13:33
    INDEX 01 63:14:15
  TRACK 17 AUDIO
    TITLE "Morning V1 ( Demo Version 1)"
    PERFORMER "Wet Wet Wet"
    INDEX 00 67:43:57
    INDEX 01 67:44:39
  TRACK 18 AUDIO
    TITLE "Morning V2 ( Demo Version 2)"
    PERFORMER "Wet Wet Wet"
    INDEX 00 71:15:23
    INDEX 01 71:16:05

CD 3

REM GENRE "Pop Rock / Synth Pop"
REM DATE 2015
REM DISCID 2111D813
REM COMMENT "ExactAudioCopy v1.1"
PERFORMER "Wet Wet Wet"
TITLE "Picture This CD3"
FILE "Wet Wet Wet - Picture This CD3.flac" WAVE
  TRACK 01 AUDIO
    TITLE "Julia Says (Live From The Tarlair Music Festival, 26 June 1994)"
    PERFORMER "Wet Wet Wet"
    INDEX 01 00:00:00
  TRACK 02 AUDIO
    TITLE "In The Ghetto (Live From BBC1 Comic Relief, 17 March 1995)"
    PERFORMER "Wet Wet Wet"
    INDEX 00 04:45:43
    INDEX 01 04:47:26
  TRACK 03 AUDIO
    TITLE "Angel Eyes (Live Acoustic Session From BBC Radio 1, 17 March 1995)"
    PERFORMER "Wet Wet Wet"
    INDEX 00 08:08:32
    INDEX 01 08:12:24
  TRACK 04 AUDIO
    TITLE "Julia Says (Live Acoustic Session From BBC Radio 1, 17 March 1995)"
    PERFORMER "Wet Wet Wet"
    INDEX 00 11:12:32
    INDEX 01 11:16:53
  TRACK 05 AUDIO
    TITLE "Gypsy Girl (Live Acoustic Session From BBC Radio 1, 17 March 1995)"
    PERFORMER "Wet Wet Wet"
    INDEX 00 14:09:51
    INDEX 01 14:11:43
  TRACK 06 AUDIO
    TITLE "Somewhere Somehow (Live From The BBC Hippodrome, 3 April 1995)"
    PERFORMER "Wet Wet Wet"
    INDEX 00 16:54:45
    INDEX 01 16:56:27
  TRACK 07 AUDIO
    TITLE "East Of The River (Live From The BBC Hippodrome, 3 April 1995)"
    PERFORMER "Wet Wet Wet"
    INDEX 01 21:04:29
  TRACK 08 AUDIO
    TITLE "I Can Give You Everything (Live From The BBC Hippodrome, 3 April 1995)"
    PERFORMER "Wet Wet Wet"
    INDEX 01 25:02:62
  TRACK 09 AUDIO
    TITLE "Wishing I Was Lucky (Live From The BBC Hippodrome, 3 April 1995)"
    PERFORMER "Wet Wet Wet"
    INDEX 01 29:13:73
  TRACK 10 AUDIO
    TITLE "Julia Says (Live From The BBC Hippodrome, 3 April 1995)"
    PERFORMER "Wet Wet Wet"
    INDEX 01 33:09:69
  TRACK 11 AUDIO
    TITLE "Goodnight Girl (Live From The BBC Hippodrome, 3 April 1995)"
    PERFORMER "Wet Wet Wet"
    INDEX 01 37:19:40
  TRACK 12 AUDIO
    TITLE "Lip Service (Live From The BBC Hippodrome, 3 April 1995)"
    PERFORMER "Wet Wet Wet"
    INDEX 01 41:26:31
  TRACK 13 AUDIO
    TITLE "Temptation (Live From The BBC Hippodrome, 3 April 1995)"
    PERFORMER "Wet Wet Wet"
    INDEX 01 46:38:47
  TRACK 14 AUDIO
    TITLE "Love Is All Around (Live From The BBC Hippodrome, 3 April 1995)"
    PERFORMER "Wet Wet Wet"
    INDEX 01 51:23:70
  TRACK 15 AUDIO
    TITLE "Love Is My Shepherd (Live From Dubai Congress Centre, 17 October 1995)"
    PERFORMER "Wet Wet Wet"
    INDEX 00 55:51:33
    INDEX 01 55:53:27
  TRACK 16 AUDIO
    TITLE "Pulling Mussels From The Shell (Live From Wembley Arena, 5 December 1995)"
    PERFORMER "Wet Wet Wet"
    INDEX 00 59:22:48
    INDEX 01 59:24:30
  TRACK 17 AUDIO
    TITLE "Hourglass (Live From Wembley Arena, 5 December 1995)"
    PERFORMER "Wet Wet Wet"
    INDEX 00 63:26:19
    INDEX 01 63:28:01
  TRACK 18 AUDIO
    TITLE "Morning (Live From Glasgow SECC, July 1995)"
    PERFORMER "Wet Wet Wet"
    INDEX 00 67:34:48
    INDEX 01 67:37:12
  TRACK 19 AUDIO
    TITLE "It’s Now Or Never (Live From Elvis: The Tribute, Memphis Pyramid, 8 October 1..."
    PERFORMER "Wet Wet Wet"
    INDEX 00 72:32:61
    INDEX 01 72:33:44
--Не забываем говорить
[Профиль] [ЛС]
Показать сообщения:    

Текущее время: Сегодня 06:24

Часовой пояс: GMT



Вы не можете начинать темы
Вы не можете отвечать на сообщения
Вы не можете редактировать свои сообщения
Вы не можете удалять свои сообщения
Вы не можете голосовать в опросах
Вы не можете прикреплять файлы к сообщениям
Вы не можете скачивать файлы