Volbeat. Hurricane Festival 2014 [2014, Heavy metal/Hard rock/Psychobilly, HDTV 720p]

 
Автор Сообщение

reversefile ®

Пол:

Стаж: 4 года 5 месяцев

Сообщений: 842

Откуда: ReverseFile.org



Награды: Нет

Торрент-статистика

Создавать темы 11-Авг-2014 19:01

[Цитировать]

Volbeat. Hurricane Festival 2014
Жанр: Heavy metal/Hard rock/Psychobilly
Продолжительность: 00:58:11
Год выпуска: 2014
Описание: Выступления датского рок бэнда Volbeat на рок фестивале Hurricane 2014 в Шесселе, рядом с Бременом 2014 jun21
Доп. информация: Собственная запись со спутникового канала ZDF Kultur 2014 jul05
Треклист: Boa [JDM]
Sad Man's Tongue
Heaven nor Hell / A Warrior's Call
16 Dollars
Dead but Rising
Fallen
A Broken Man and the Dawn / Mary Ann's Place / Rebel Monster / Making Believe
Maybellene I Hofteholder
Still Counting
Pool of Booze, Booze, Booza
The Hangman's Body Count
Guitar Gangsters & Cadillac Blood
Качество: HDTV 720p
Контейнер: TS
Видео кодек: H.264
Аудио кодек: AC3
Видео: Mpeg4 AVC, 1280x720, 10900 kbps, 50 fps Progressive
Аудио: AC3, 448 kbps, 48 kHz, stereo
Аудио 2: MP2, 256 kbps, 48 kHz, stereo
Аудио 3: MP2, 192 kbps, 48 kHz, stereo

Отчёт MediaInfo / BDInfo

GeneralID : 1 (0x1)Complete name : D:\Downloads\Volbeat. Hurricane Festival 2014.tsFormat : MPEG-TSFile size : 5.12 GiBDuration : 58mn 11sOverall bit rate mode : VariableOverall bit rate : 12.6 Mbps
VideoID : 6410 (0x190A)Menu ID : 1 (0x1)Format : AVCFormat/Info : Advanced Video CodecFormat profile : Main@L4.0Format settings, CABAC : YesFormat settings, ReFrames : 5 framesCodec ID : 27Duration : 58mn 11sBit rate : 10.9 MbpsWidth : 1 280 pixelsHeight : 720 pixelsDisplay aspect ratio : 16:9Frame rate : 50.000 fpsColor space : YUVChroma subsampling : 4:2:0Bit depth : 8 bitsScan type : ProgressiveBits/(Pixel*Frame) : 0.236Stream size : 4.42 GiB (86%)Color primaries : BT.709Transfer characteristics : BT.709Matrix coefficients : BT.709
Audio #1ID : 6420 (0x1914)Menu ID : 1 (0x1)Format : MPEG AudioFormat version : Version 1Format profile : Layer 2Codec ID : 3Duration : 58mn 11sBit rate mode : ConstantBit rate : 256 KbpsChannel(s) : 2 channelsSampling rate : 48.0 KHzCompression mode : LossyStream size : 107 MiB (2%)Language : English
Audio #2ID : 6421 (0x1915)Menu ID : 1 (0x1)Format : MPEG AudioFormat version : Version 1Format profile : Layer 2Codec ID : 3Duration : 58mn 11sBit rate mode : ConstantBit rate : 192 KbpsChannel(s) : 2 channelsSampling rate : 48.0 KHzCompression mode : LossyStream size : 79.9 MiB (2%)Language : English
Audio #3ID : 6422 (0x1916)Menu ID : 1 (0x1)Format : AC-3Format/Info : Audio Coding 3Mode extension : CM (complete main)Format settings, Endianness : BigCodec ID : 6Duration : 58mn 11sBit rate mode : ConstantBit rate : 448 KbpsChannel(s) : 2 channelsChannel positions : Front: L RSampling rate : 48.0 KHzBit depth : 16 bitsCompression mode : LossyStream size : 186 MiB (4%)Language : English
Audio #4ID : 6423 (0x1917)Menu ID : 1 (0x1)Format : MPEG AudioFormat version : Version 1Format profile : Layer 2Codec ID : 3Duration : 58mn 11sBit rate mode : ConstantBit rate : 192 KbpsChannel(s) : 2 channelsSampling rate : 48.0 KHzCompression mode : LossyStream size : 79.9 MiB (2%)Language : English

Скриншоты

[Профиль] [ЛС]
Кто просматривает тему:

Показать сообщения:    

Текущее время: Сегодня 08:14

Часовой пояс: GMT



Вы не можете начинать темы
Вы не можете отвечать на сообщения
Вы не можете редактировать свои сообщения
Вы не можете удалять свои сообщения
Вы не можете голосовать в опросах
Вы не можете прикреплять файлы к сообщениям
Вы не можете скачивать файлы