Video Kids - The Invasion Of The Spacepeckers (2007) [FLAC|Lossless]<Italo-Disco>

 
Автор Сообщение

sergej644 ®

Пол:

Стаж: 4 года 11 месяцев

Сообщений: 6046

Откуда: Soviet Union



Награды: Нет

Торрент-статистика

Создавать темы 24-Дек-2014 22:37

[Цитировать]

-Video Kids - The Invasion Of The Spacepeckers (2007)- Год: 2007
Лейбл: ESonCD
Каталог #: 200707 - 2
Жанр: Italo-Disco
Продолжительность: 00:57:07
Кодек: FLAC
Битрейт: Lossless
Тип битрейта: image +.cue
Треклист:
01. Do The Rap 3:35
02. Cartooney Tunes (Incl.Happy Birthday) 4:24
03. La Bamba 4:14
04. I'm Rock And Rollrpecker 2:28
05. Communication Outer Space 3:09
06. Woodpeckers From Space 5:57
07. Give Me That Banana 4:07
08. Do You Like Surfing ? 3:21
09. Sky Rider 3:13
Bonus Tracks:
10. Do The Rap (Extended Mix) 6:25
11. Woodpeckers From Space (Extended Mix) 5:56
12. Happy Birthday-Sky Rider (Extended Mix) 3:53
13. Rap And Sing Along (Instrumental) 6:27

Отчёт ЕАС&#58;

Exact Audio Copy V0.99 prebeta 5 from 4. May 2009
Отчёт EAC об извлечении, выполненном 12. ноября 2010, 22:46
Video Kids / The Invasion Of The Spacepeckers
Дисковод: PIONEER DVD-RW DVR-107D Adapter: 3 ID: 0
Режим чтения : Достоверность
Использование точного потока : Да
Отключение кэша аудио : Да
Использование указателей C2 : Нет
Коррекция смещения при чтении : 48
Способность читать области Lead-in и Lead-out : Нет
Заполнение пропущенных сэмплов тишиной : Да
Удаление блоков с тишиной в начале и конце : Нет
При вычислениях CRC использовались нулевые сэмплы : Да
Интерфейс : Встроенный Win32-интерфейс для Win NT/2000
Выходной формат : Внутренние WAV-операции
Формат сэмплов : 44.100 Гц; 16 бит; стерео
TOC извлечённого CD
Трек | Старт | Длительность | Начальный сектор | Конечный сектор
---------------------------------------------------------------------
1 | 0:00.00 | 3:34.65 | 0 | 16114
2 | 3:34.65 | 4:23.49 | 16115 | 35888
3 | 7:58.39 | 4:13.59 | 35889 | 54922
4 | 12:12.23 | 2:28.16 | 54923 | 66038
5 | 14:40.39 | 3:08.43 | 66039 | 80181
6 | 17:49.07 | 5:56.43 | 80182 | 106924
7 | 23:45.50 | 4:07.13 | 106925 | 125462
8 | 27:52.63 | 3:21.15 | 125463 | 140552
9 | 31:14.03 | 3:13.33 | 140553 | 155060
10 | 34:27.36 | 6:24.63 | 155061 | 183923
11 | 40:52.24 | 5:56.11 | 183924 | 210634
12 | 46:48.35 | 3:52.56 | 210635 | 228090
13 | 50:41.16 | 6:26.50 | 228091 | 257090
Характеристики диапазона извлечения и сообщения об ошибках
Выбранный диапазон
Имя файла D:\All\Music\! Video Kids - The Invasion Of The Spacepeckers (ESonCD)\Video Kids - The Invasion Of The Spacepeckers.wav
Пиковый уровень 98.9 %
Качество диапазона 99.9 %
CRC теста CC334DD6
CRC копии CC334DD6
Копирование... OK
Ошибок не произошло
AccurateRip: сводка
Трек 1 точное извлечение (доверие 1) [FA812F51]
Трек 2 точное извлечение (доверие 1) [2B07C801]
Трек 3 точное извлечение (доверие 1) [20B0B73D]
Трек 4 точное извлечение (доверие 1) [BFA2CB47]
Трек 5 точное извлечение (доверие 1) [D9DF984B]
Трек 6 точное извлечение (доверие 1) [6E5ABE02]
Трек 7 точное извлечение (доверие 1) [2F21BD9C]
Трек 8 точное извлечение (доверие 1) [58249C81]
Трек 9 точное извлечение (доверие 1) [98F032FB]
Трек 10 точное извлечение (доверие 1) [EE07607B]
Трек 11 точное извлечение (доверие 1) [8E434B13]
Трек 12 точное извлечение (доверие 1) [46156B08]
Трек 13 точное извлечение (доверие 1) [212C8111]
Все треки извлечены точно

Отчёт auCDtect Task manager&#58;

-----------------------
DON'T MODIFY THIS FILE
-----------------------
PERFORMER: auCDtect Task Manager, ver. 1.5.1RC4 build 1.5.1.5
Copyright (c) 2008-2010 y-soft. All rights reserved
http://y-soft.org
ANALYZER: auCDtect: CD records authenticity detector, version 0.8.2
Copyright (c) 2004 Oleg Berngardt. All rights reserved.
Copyright (c) 2004 Alexander Djourik. All rights reserved.
FILE: Video Kids - The Invasion Of The Spacepeckers.flac
  Size: 421672440 Hash: 09743BF7E519F63439F79ACA037B6589 Accuracy: -m0
  Conclusion: CDDA 100%
  Signature: 9861592ED8E3FCC540670ACEB45033DFBACE8ED1

Содержание индексной карты (.CUE&#41;&#58;

REM GENRE Italo-Disco
REM DATE 2007
REM DISCID AB0D630D
REM COMMENT "ExactAudioCopy v0.99pb5"
PERFORMER "Video Kids"
TITLE "The Invasion Of The Spacepeckers"
FILE "Video Kids - The Invasion Of The Spacepeckers.flac" WAVE
  TRACK 01 AUDIO
    TITLE "Do The Rap"
    PERFORMER "Video Kids"
    FLAGS DCP
    INDEX 01 00:00:00
  TRACK 02 AUDIO
    TITLE "Cartooney Tunes (Incl.Happy Birthday)"
    PERFORMER "Video Kids"
    FLAGS DCP
    INDEX 00 03:32:65
    INDEX 01 03:34:65
  TRACK 03 AUDIO
    TITLE "La Bamba"
    PERFORMER "Video Kids"
    FLAGS DCP
    INDEX 00 07:56:39
    INDEX 01 07:58:39
  TRACK 04 AUDIO
    TITLE "I'm Rock And Rollrpecker"
    PERFORMER "Video Kids"
    FLAGS DCP
    INDEX 00 12:10:23
    INDEX 01 12:12:23
  TRACK 05 AUDIO
    TITLE "Communication Outer Space"
    PERFORMER "Video Kids"
    FLAGS DCP
    INDEX 00 14:38:39
    INDEX 01 14:40:39
  TRACK 06 AUDIO
    TITLE "Woodpeckers From Space"
    PERFORMER "Video Kids"
    FLAGS DCP
    INDEX 00 17:47:07
    INDEX 01 17:49:07
  TRACK 07 AUDIO
    TITLE "Give Me That Banana"
    PERFORMER "Video Kids"
    FLAGS DCP
    INDEX 00 23:43:50
    INDEX 01 23:45:50
  TRACK 08 AUDIO
    TITLE "Do You Like Surfing?"
    PERFORMER "Video Kids"
    FLAGS DCP
    INDEX 00 27:50:63
    INDEX 01 27:52:63
  TRACK 09 AUDIO
    TITLE "Sky Rider"
    PERFORMER "Video Kids"
    FLAGS DCP
    INDEX 00 31:12:03
    INDEX 01 31:14:03
  TRACK 10 AUDIO
    TITLE "Do The Rap (Extended Mix)"
    PERFORMER "Video Kids"
    FLAGS DCP
    INDEX 00 34:25:36
    INDEX 01 34:27:36
  TRACK 11 AUDIO
    TITLE "Woodpeckers From Space (Extended Mix)"
    PERFORMER "Video Kids"
    FLAGS DCP
    INDEX 00 40:50:24
    INDEX 01 40:52:24
    INDEX 02 41:25:55
    INDEX 03 44:51:65
    INDEX 04 44:51:66
  TRACK 12 AUDIO
    TITLE "Happy Birthday-Sky Rider (Extended Mix)"
    PERFORMER "Video Kids"
    FLAGS DCP
    INDEX 00 46:46:35
    INDEX 01 46:48:35
  TRACK 13 AUDIO
    TITLE "Rap And Sing Along (Instrumental)"
    PERFORMER "Video Kids"
    FLAGS DCP
    INDEX 00 50:39:16
    INDEX 01 50:41:16
[Профиль] [ЛС]

Создавать темы 13-Авг-2015 10:44 (спустя 7 месяцев 20 дней)

Топик был перенесен из форума Зарубежная в форум Technopop, Eurodance, Disco
sergej644
 
Кто просматривает тему:

Показать сообщения:    

Текущее время: Сегодня 15:45

Часовой пояс: GMT



Вы не можете начинать темы
Вы не можете отвечать на сообщения
Вы не можете редактировать свои сообщения
Вы не можете удалять свои сообщения
Вы не можете голосовать в опросах
Вы не можете прикреплять файлы к сообщениям
Вы не можете скачивать файлы