Viasat Nature: С водой и без воды / Life in the Great Wetlands [сезон 1 серии 1-5 из 5] (Люк Марескот, Жан-Люк Андре, Жан-Батист Эррека, Фредерик Фебвр) [2014 г., Документальный, путешествия, флора, фауна, HDTVRip 720p]

 
Автор Сообщение

skorpionN ®

Пол:

Стаж: 1 год 8 месяцев

Сообщений: 586



Награды: 4 (Подробнее)

Mega Seeder 2 (Количество: 1) Mega Seeder 1 (Количество: 1) Mega Seeder 3 (Количество: 1)
Торрент-статистика

Создавать темы 10-Сен-2015 20:25

[Цитировать]

Viasat Nature: С водой и без воды / Life in the Great Wetlands [сезон 1 серии 1-5 из 5]
Год выпуска: 2014
Страна: Франция, ARTE France, One Planet
Жанр: Документальный, путешествия, флора, фауна
Продолжительность: 5x~00:50:55
Перевод: Профессиональный (одноголосый), переведено и озвучено на студии "SDI Media", перевод Натальи Сергеевой, Анны Заславской
текст читала Виктория Бабанова
Режиссер: Люк Марескот, Жан-Люк Андре, Жан-Батист Эррека, Фредерик Фебвр, Жан-Мари Корнуел
Описание: Дельты рек, протоки, топи и заболоченные регионы являются связующим звеном между сушей и водными просторами. Они невероятно важны для экологии планеты. На каждом этаже этого мира, в воде, на земле и в ветвях деревьев, обитают самые разнообразные виды флоры и фауны. Однако их жизнь нельзя назвать беспечной. Здесь всё подчинено мощному и неумолимому водному потоку. Для животных, которые обитают в таких районах, каждый день становится борьбой за выживание. Ведь все живое полностью зависит от круговорота воды в природе.
Список серий:
01. Лоанго. Жемчужина Африки / Loango. The African Jewel
Национальный парк Лоанго считается жемчужиной западного побережья Африки. Заповедник представляет собой нетронутые цивилизацией леса и саванны, пляжи, мангровые заросли и лагуны.
02. Кинабатанган. Дикий Рай Борнео / Kinabatangan. Borneo's Wild Eden/
Проживающие вдоль реки Кинабатанган лесные носороги, орангутанги и слоны каждый день вынуждены приспосабливаться к постоянному круговороту воды в природе. Дельты рек, топи и заболоченные регионы являются самыми экологически богатыми местами на Земле. Однако для животных, которые обитают в таких районах, каждый день становится борьбой за выживание. Ведь все живое полностью зависит от круговорота воды в природе.
03. Пакайя-Самирия. Зеркальные джунгли / Pacaya-Samiria. The Mirrored Jungle
На границе амазонских джунглей лежит мало изученный мир. Огромный девственный лес, ставший промежуточным звеном между землей и небом. Индейцы называют это место зеркальными джунглями. Это сердце крупнейшего заповедника дикой природы в Перу Пакайя-Самирия.
04. Казиранга. Слезы Гималаев / Kaziranga. Tears of Himalaya
Это сердце самой влажной зоны на планете. Парк Казиранга включен включен в список Всемирного наследия ЮНЕСКО. Он раскинулся на берегах реки Брахмапутра на северо-востоке Индии. Здесь природные ритмы подчинены природной стихии. Благодаря воде на этих залитых дождем равнинах возник удивительных союз экосистем.
05. Залив Фанди. Земля самых высоких приливов / Bay of Fundy. The World's Highest Tides
Отслеживая волны приливных вол в канадском заливе Фанди можно совершить удивительное путешествие из морских глубин далеко на сушу. Местной флоре и фауне пришлось приспособиться к сильнейшим в мире приливам. По мимо гигантских приливных волн в пять раз выше тех, что бьются о побережье Атлантики, здесь царит суровый канадский климат.
Качество: HDTVRip 720p
Формат: MKV
Видео кодек: H.264
Аудио кодек: AC3
Видео: 1280x720 50fps 5000 Kbps
Аудио: AC3, 2ch, 192 kbps, 48 kHz

Скриншоты


MediaInfo:

Format : Matroska
Format version : Version 4 / Version 2
File size : 1.82 GiB
Duration : 50mn 55s
Overall bit rate mode : Constant
Overall bit rate : 5 117 Kbps
Encoded date : UTC 2015-09-10 19:12:56
Writing application : mkvmerge v8.3.0 ('Over the Horizon') 64bit
Writing library : libebml v1.3.1 + libmatroska v1.4.2
DURATION : 00:50:55.199000000
NUMBER_OF_FRAMES : 152760
NUMBER_OF_BYTES : 1879777886
_STATISTICS_WRITING_APP : mkvmerge v8.3.0 ('Over the Horizon') 64bit
_STATISTICS_WRITING_DATE_UTC : 2015-09-10 19:12:56
_STATISTICS_TAGS : BPS DURATION NUMBER_OF_FRAMES NUMBER_OF_BYTES
Video
ID : 1
Format : AVC
Format/Info : Advanced Video Codec
Format profile : High@L4.1
Format settings, CABAC : Yes
Format settings, ReFrames : 3 frames
Codec ID : V_MPEG4/ISO/AVC
Duration : 50mn 55s
Bit rate mode : Constant
Bit rate : 5 000 Kbps / 5 000 Kbps
Width : 1 280 pixels
Height : 720 pixels
Display aspect ratio : 16:9
Frame rate mode : Constant
Frame rate : 50.000 fps
Standard : NTSC
Color space : YUV
Chroma subsampling : 4:2:0
Bit depth : 8 bits
Scan type : Progressive
Bits/(Pixel*Frame) : 0.109
Stream size : 1.72 GiB (94%)
Writing library : x264 core 114
Encoding settings : cabac=1 / ref=3 / deblock=1:0:0 / analyse=0x3:0x113 / me=hex / subme=7 / psy=1 / psy_rd=1.00:0.00 / mixed_ref=1 / me_range=16 / chroma_me=1 / trellis=1 / 8x8dct=1 / cqm=2 / deadzone=21,11 / fast_pskip=1 / chroma_qp_offset=-2 / threads=6 / sliced_threads=0 / slices=1 / nr=0 / decimate=1 / interlaced=0 / constrained_intra=0 / bframes=3 / b_pyramid=0 / b_adapt=1 / b_bias=0 / direct=1 / weightb=1 / open_gop=0 / weightp=2 / keyint=250 / keyint_min=25 / scenecut=40 / intra_refresh=0 / rc_lookahead=40 / rc=cbr / mbtree=1 / bitrate=5000 / ratetol=1.0 / qcomp=0.60 / qpmin=3 / qpmax=69 / qpstep=4 / vbv_maxrate=5000 / vbv_bufsize=4997 / nal_hrd=cbr / ip_ratio=1.40 / aq=1:1.00
Default : Yes
Forced : No
Color primaries : BT.709
Transfer characteristics : BT.709
Matrix coefficients : BT.709
Color range : Limited
Audio
ID : 2
Format : AC-3
Format/Info : Audio Coding 3
Mode extension : CM (complete main)
Format settings, Endianness : Big
Codec ID : A_AC3
Duration : 50mn 55s
Bit rate mode : Constant
Bit rate : 192 Kbps
Channel(s) : 2 channels
Channel positions : Front: L R
Sampling rate : 48.0 KHz
Bit depth : 16 bits
Compression mode : Lossy
Stream size : 69.9 MiB (4%)
Default : Yes
Forced : No

Внимание:

Раздача ведётся путём добавления новых серий; при каждом добавлении создаётся новый торрент. Чтобы начать докачку новой серии, пользователям необходимо сделать следующее:
- Остановить скачивание.
- Удалить старый торрент у себя из клиента (старые серии удалять не надо).
- Скачать новый торрент и запустить его у себя в клиенте вместо старого, при этом указать клиенту путь в старую папку куда и должно происходить скачивание новых серий.
Добавлено 04. Казиранга. Слезы Гималаев / Kaziranga. Tears of Himalaya


Последний раз редактировалось: skorpionN (2015-10-10 10:51), всего редактировалось 12 раз(а)
[Профиль] [ЛС]

KiruhaDelMar

Стаж: 1 год 8 месяцев

Сообщений: 246



Награды: Нет

Торрент-статистика

Создавать темы 10-Сен-2015 21:18 (спустя 52 минуты)

[Цитировать]

Не хочу тебя расстраивать но эту хрень вообще никто не смотрит, к тому же на кинозале 4 серии валяются hmmm
[Профиль] [ЛС]

skorpionN ®

Пол:

Стаж: 1 год 8 месяцев

Сообщений: 586



Награды: 4 (Подробнее)

Mega Seeder 1 (Количество: 1) Mega Seeder 3 (Количество: 1) Mega Seeder 2 (Количество: 1)
Торрент-статистика

Создавать темы 11-Сен-2015 07:01 (спустя 9 часов)

[Цитировать]

Ты меня не расстроил. Там много чего валяется.
[Профиль] [ЛС]
Кто просматривает тему:

Форум Тема Автор Размер
Viasat Nature Viasat Nature: BBC: Экспедиция в Новую Гвинею / Expedition New Guinea (Jonny Young) [серии 1-3 из 3] [2009 г., Документальный, природа, флора, фауна, HDTVRip 720p] skorpionN 4.53 GB
Viasat Nature Viasat Nature: Австралия: путешествие сквозь эволюцию / Australia - A Journey Through Evolution (Laura Casamayor del Rincon) [2014 г., Документальный, познавательный, SATRip] skorpionN 744 MB
Viasat Nature Viasat Nature: Баварское горное королевство / Allgäu - Im Land des Märchenkönigs (Bavaria's Alpine Kingdom) (Жан Хафт / Jan Haft) [2009 г., Документальный, путешествия, природа, SATRip] skorpionN 786 MB
Viasat Nature Viasat Nature: Большой Кавказ / The Greater Caucasus (Хенри М. Микс) [2014 г., Документальный, путешествия, флора, фауна, SATRip] skorpionN 706 MB
Viasat Nature Viasat Nature: Вторжение гигантских питонов / Invasion Of The Giant Pythons: Florida With Nigel Marven (Metthew Wright) [2009 г., Документальный, природа, флора, фауна, HDTVRip 720p] skorpionN 1.42 GB
Viasat Nature Viasat Nature: Дикая природа и времена года / A Year in the Wild [серии 1-5 из 5] (Daniela Pulverer) [2014 г., Документальный, природа, флора, фауна, SATRip] skorpionN 3 GB
Viasat Nature Viasat Nature: Дикий Cевер / Wild North [серии 1-3 из 3] (Arne Naevra, Torgeir Lande, Adam Schmedes) [2015 г., Документальный, научно-познавательный, фауна, флора, SATRip] skorpionN 2.34 GB
Viasat Nature Viasat Nature: Европа и Мир за её пределами / Planet Europe & Beyond [серии 1-7 из 7] (Курт Мюндл) [2015 г., Документальный, познавательный, природа, флора, фауна, путешествие, туризм, HDTVRip 720p] skorpionN 12.68 GB
Показать сообщения:    

Текущее время: Сегодня 18:51

Часовой пояс: GMT



Вы не можете начинать темы
Вы не можете отвечать на сообщения
Вы не можете редактировать свои сообщения
Вы не можете удалять свои сообщения
Вы не можете голосовать в опросах
Вы не можете прикреплять файлы к сообщениям
Вы не можете скачивать файлы