Viasat Nature: Растения под микроскопом / Invisible Nature [серии 1-3 из 3] (Thierry Berrod) [2012 г., Документальный, научно-познавательный,, SATRip]

 
Автор Сообщение

skorpionN ®

Пол:

Стаж: 1 год 8 месяцев

Сообщений: 592



Награды: 4 (Подробнее)

Mega Seeder 2 (Количество: 1) Top Releaser 2 (Количество: 1) Mega Seeder 3 (Количество: 1)
Торрент-статистика

Создавать темы 20-Май-2015 19:27

[Цитировать]

Viasat Nature: Растения под микроскопом / Invisible Nature [серии 1-3 из 3]
Год выпуска: 2012
Страна: Франция, Mona Lisa Production
Жанр: Документальный, научно-познавательный
Продолжительность: 00:50:45+00:51:30+00:50:58
Перевод: Профессиональный (одноголосый)
Режиссер: Thierry Berrod
Описание: Существует огромное количество снимков растений, сделанных при помощи электронного микроскопа, но еще ни разу их не снимали на камеру с таким мощным увеличением. При помощи этих уникальных съемок мы узнаем о том, как выживают, адаптируются и эволюционируют различные растения. Со стороны они кажутся пассивными, однако мы даже не подозреваем о многочисленных процессах, которые происходят внутри них. Программа расскажет о том, насколько сложен и многогранен мир растений, который скрыт от человеческих глаз.
Список серий:
01. Растения - колонизаторы / Colonising Plants
В этом эпизоде мы увидим, как такие растения, как кактусы и акации, а также хищные растения распространились в различных климатических условиях.
02. Говорящие растения / Talking Plants
В этой серии мы узнаем, каким образом растения передвигаются, слушают и общаются друг с другом.
03. Сила растений / Power of Plants
У каждой популяции существует своя стратегия выживания, у растений — это фотосинтез. Однако существует животное, которое постигло секрет растений и также способно к фотосинтезу.
Доп. информация: переведено и озвучено на студии "SDI Media" перевод Валерии Этчиной, текст читает Виктория Бабанова
Качество: SATRip
Формат: AVI
Видео кодек: XviD
Аудио кодек: AC3
Видео: 720x400 25fps 1800 Kbps
Аудио: AC3 2ch, 48kHz, 192 kbps

Скриншоты


MediaInfo:

Format : AVI
Format/Info : Audio Video Interleave
File size : 727 MiB
Duration : 50mn 45s
Overall bit rate : 2 002 Kbps
Writing application : VirtualDubMod 1.5.10.3 | www.virtualdub-fr.org || (build 2550/release)
Writing library : VirtualDubMod build 2550/release
Video
ID : 0
Format : MPEG-4 Visual
Format profile : Advanced Simple@L5
Format settings, BVOP : 2
Format settings, QPel : Yes
Format settings, GMC : 3 warppoints
Format settings, Matrix : Default (H.263)
Codec ID : XVID
Codec ID/Hint : XviD
Duration : 50mn 45s
Bit rate : 1 800 Kbps
Width : 720 pixels
Height : 400 pixels
Display aspect ratio : 16:9
Frame rate : 25.000 fps
Color space : YUV
Chroma subsampling : 4:2:0
Bit depth : 8 bits
Scan type : Progressive
Compression mode : Lossy
Bits/(Pixel*Frame) : 0.250
Stream size : 653 MiB (90%)
Writing library : XviD 1.2.1 (UTC 2008-12-04)
Audio
ID : 1
Format : AC-3
Format/Info : Audio Coding 3
Mode extension : CM (complete main)
Format settings, Endianness : Big
Codec ID : 2000
Duration : 50mn 45s
Bit rate mode : Constant
Bit rate : 192 Kbps
Channel(s) : 2 channels
Channel positions : Front: L R
Sampling rate : 48.0 KHz
Compression mode : Lossy
Stream size : 69.7 MiB (10%)
Alignment : Split accross interleaves
Interleave, duration : 40 ms (1.00 video frame)
Interleave, preload duration : 500 ms

Внимание:

Раздача ведётся путём добавления новых серий; при каждом добавлении создаётся новый торрент. Чтобы начать докачку новой серии, пользователям необходимо сделать следующее:
- Остановить скачивание.
- Удалить старый торрент у себя из клиента (старые серии удалять не надо).
- Скачать новый торрент и запустить его у себя в клиенте вместо старого, при этом указать клиенту путь в старую папку куда и должно происходить скачивание новых серий.
Добавлено 03. Сила растений / Power of Plants


Последний раз редактировалось: skorpionN (2015-06-07 11:45), всего редактировалось 6 раз(а)
[Профиль] [ЛС]

KiruhaDelMar

Стаж: 1 год 8 месяцев

Сообщений: 248



Награды: Нет

Торрент-статистика

Создавать темы 20-Май-2015 20:56 (спустя 1 час 29 минут)

[Цитировать]

о, хоть чета нормальное за месяц respect
[Профиль] [ЛС]
Кто просматривает тему:

Форум Тема Автор Размер
Viasat Nature Viasat Nature: BBC: Экспедиция в Новую Гвинею / Expedition New Guinea (Jonny Young) [серии 1-3 из 3] [2009 г., Документальный, природа, флора, фауна, HDTVRip 720p] skorpionN 4.53 GB
Viasat Nature Viasat Nature: Австралия: путешествие сквозь эволюцию / Australia - A Journey Through Evolution (Laura Casamayor del Rincon) [2014 г., Документальный, познавательный, SATRip] skorpionN 744 MB
Viasat Nature Viasat Nature: Баварское горное королевство / Allgäu - Im Land des Märchenkönigs (Bavaria's Alpine Kingdom) (Жан Хафт / Jan Haft) [2009 г., Документальный, путешествия, природа, SATRip] skorpionN 786 MB
Viasat Nature Viasat Nature: Большой Кавказ / The Greater Caucasus (Хенри М. Микс) [2014 г., Документальный, путешествия, флора, фауна, SATRip] skorpionN 706 MB
Viasat Nature Viasat Nature: Вторжение гигантских питонов / Invasion Of The Giant Pythons: Florida With Nigel Marven (Metthew Wright) [2009 г., Документальный, природа, флора, фауна, HDTVRip 720p] skorpionN 1.42 GB
Viasat Nature Viasat Nature: Дикая природа и времена года / A Year in the Wild [серии 1-5 из 5] (Daniela Pulverer) [2014 г., Документальный, природа, флора, фауна, SATRip] skorpionN 3 GB
Viasat Nature Viasat Nature: Дикий Cевер / Wild North [серии 1-3 из 3] (Arne Naevra, Torgeir Lande, Adam Schmedes) [2015 г., Документальный, научно-познавательный, фауна, флора, SATRip] skorpionN 2.34 GB
Viasat Nature Viasat Nature: Европа и Мир за её пределами / Planet Europe & Beyond [серии 1-7 из 7] (Курт Мюндл) [2015 г., Документальный, познавательный, природа, флора, фауна, путешествие, туризм, HDTVRip 720p] skorpionN 12.68 GB
Показать сообщения:    

Текущее время: Сегодня 18:50

Часовой пояс: GMT



Вы не можете начинать темы
Вы не можете отвечать на сообщения
Вы не можете редактировать свои сообщения
Вы не можете удалять свои сообщения
Вы не можете голосовать в опросах
Вы не можете прикреплять файлы к сообщениям
Вы не можете скачивать файлы