Viasat Nature: Пробуждение дикой природы - европейская весна / Wild & Wide Awake - Spring Across Europe [сезон 1 серии 1-2 из 2] (Thomas Willers) [2015 г., Документальный, путешествия, флора, фауна, HDTVRip-AVC 720p]

 
Автор Сообщение

skorpionN ®

Пол:

Стаж: 1 год 8 месяцев

Сообщений: 592



Награды: 4 (Подробнее)

Mega Seeder 1 (Количество: 1) Top Releaser 2 (Количество: 1) Mega Seeder 3 (Количество: 1)
Торрент-статистика

Создавать темы 29-Мар-2016 15:55

[Цитировать]

Viasat Nature: Пробуждение дикой природы - европейская весна / Wild & Wide Awake - Spring Across Europe [сезон 1 серии 1-2 из 2]
Год выпуска: 2015
Страна: Германия, WDR
Жанр: Документальный, путешествия, флора, фауна
Продолжительность: 2x~00:50:02
Перевод: Профессиональный (одноголосый), переведено и озвучено на студии "SDI Media", перевод Веры Макроменко, Евгения Леонова текст читал Анатолий Фечин
Режиссер: Thomas Willers
Описание: Весна - самое восхитительное время для природы, и все живое радостно приветствует ее после долгих и мрачных зимних месяцев. Как преображается Европа с приходом этой красочной поры? Климат и дивные пейзажи континента, простирающегося с севера на юг на 5000 км, так же разнообразны, как и проявления весенней феерии. От долин до гор, от центральных территорий до моря, от теплого юга до ледяного севера - нам повстречаются даже дикие лошади и танцующие фламинго.
Список серий:
01. От Средиземного моря до Альп / From the Mediterranean to the Alps
От испанских внутренних территорий до скалистого побережья, от французского Прованса до незабываемых Альп - повсюду весна вступает в свои права, и все чаще можно встретить кроликов, сурков и журавлей.
02. От Альп до Полярного моря / From the Alps to the Polar Sea
Весна достигает своего расцвета в Альпах, и козы и сурки резвятся на горных склонах. В Германии кабаны отправляются со своим потомством на прогулку по цветущим лугам и лесам.
Качество: HDTVRip-AVC 720p
Формат: MKV
Видео кодек: H.264
Аудио кодек: AC3
Видео: 1280x720 50.00fps 5000 Kbps
Аудио: AC3 2ch, 48kHz, 192 kbps

Скриншоты


MediaInfo:

Format : Matroska
Format version : Version 2
File size : 1.79 GiB
Duration : 50mn 2s
Overall bit rate mode : Constant
Overall bit rate : 5 109 Kbps
Encoded date : UTC 2016-03-29 09:18:37
Writing application : TMPGEnc Video Mastering Works 5 Version. 5.0.6.38
Writing library : TMPGEnc Video Mastering Works 5 Version. 5.0.6.38
Video
ID : 2
Format : AVC
Format/Info : Advanced Video Codec
Format profile : High@L4.1
Format settings, CABAC : Yes
Format settings, ReFrames : 3 frames
Codec ID : V_MPEG4/ISO/AVC
Duration : 50mn 2s
Bit rate mode : Constant
Bit rate : 5 000 Kbps / 5 000 Kbps
Width : 1 280 pixels
Height : 720 pixels
Display aspect ratio : 16:9
Frame rate mode : Constant
Frame rate : 50.000 fps
Standard : NTSC
Color space : YUV
Chroma subsampling : 4:2:0
Bit depth : 8 bits
Scan type : Progressive
Bits/(Pixel*Frame) : 0.109
Stream size : 1.68 GiB (94%)
Writing library : x264 core 114
Encoding settings : cabac=1 / ref=3 / deblock=1:0:0 / analyse=0x3:0x113 / me=hex / subme=7 / psy=1 / psy_rd=1.00:0.00 / mixed_ref=1 / me_range=16 / chroma_me=1 / trellis=1 / 8x8dct=1 / cqm=2 / deadzone=21,11 / fast_pskip=1 / chroma_qp_offset=-2 / threads=6 / sliced_threads=0 / slices=1 / nr=0 / decimate=1 / interlaced=0 / constrained_intra=0 / bframes=3 / b_pyramid=0 / b_adapt=1 / b_bias=0 / direct=1 / weightb=1 / open_gop=0 / weightp=2 / keyint=250 / keyint_min=25 / scenecut=40 / intra_refresh=0 / rc_lookahead=40 / rc=cbr / mbtree=1 / bitrate=5000 / ratetol=1.0 / qcomp=0.60 / qpmin=3 / qpmax=69 / qpstep=4 / vbv_maxrate=5000 / vbv_bufsize=4997 / nal_hrd=cbr / ip_ratio=1.40 / aq=1:1.00
Default : Yes
Forced : No
Color primaries : BT.709
Transfer characteristics : BT.709
Matrix coefficients : BT.709
Color range : Limited
Audio
ID : 1
Format : AC-3
Format/Info : Audio Coding 3
Mode extension : CM (complete main)
Format settings, Endianness : Big
Codec ID : A_AC3
Duration : 50mn 2s
Bit rate mode : Constant
Bit rate : 192 Kbps
Channel(s) : 2 channels
Channel positions : Front: L R
Sampling rate : 48.0 KHz
Bit depth : 16 bits
Compression mode : Lossy
Stream size : 68.7 MiB (4%)
Default : Yes
Forced : No

Внимание:

Раздача ведётся путём добавления новых серий; при каждом добавлении создаётся новый торрент. Чтобы начать докачку новой серии, пользователям необходимо сделать следующее:
- Остановить скачивание.
- Удалить старый торрент у себя из клиента (старые серии удалять не надо).
- Скачать новый торрент и запустить его у себя в клиенте вместо старого, при этом указать клиенту путь в старую папку куда и должно происходить скачивание новых серий.
Добавлено
02. От Альп до Полярного моря / From the Alps to the Polar Sea


Последний раз редактировалось: skorpionN (2016-03-30 17:13), всего редактировалось 1 раз
[Профиль] [ЛС]

KiruhaDelMar

Стаж: 1 год 8 месяцев

Сообщений: 248



Награды: Нет

Торрент-статистика

Создавать темы 30-Мар-2016 14:25 (спустя 22 часа)

[Цитировать]

Пр моему это пробуждение ты уже сто раз заливал, hunter прямо как в фильме День сурка, каждый день захожу, а тут весна епта ca
[Профиль] [ЛС]

skorpionN ®

Пол:

Стаж: 1 год 8 месяцев

Сообщений: 592



Награды: 4 (Подробнее)

Mega Seeder 2 (Количество: 1) Top Releaser 2 (Количество: 1) Mega Seeder 1 (Количество: 1)
Торрент-статистика

Создавать темы 30-Мар-2016 14:31 (спустя 5 минут)

[Цитировать]

Качество не то. Народ желает другого. Хотя для твего контингента и формат андроида сойдёт, с перевёрнутым изображением.
[Профиль] [ЛС]

KiruhaDelMar

Стаж: 1 год 8 месяцев

Сообщений: 248



Награды: Нет

Торрент-статистика

Создавать темы 30-Мар-2016 17:47 (спустя 3 часа)

[Цитировать]

Мой элитный продукт на мобильных устройствах не воспроизводится, а ценится у нас прежде всего содержание , а не пиксели твои перевернутые, на которые кроме тебя вообще никто внимания не обращает, больно конечно, обидно, но это так bk
[Профиль] [ЛС]

KiruhaDelMar

Стаж: 1 год 8 месяцев

Сообщений: 248



Награды: Нет

Торрент-статистика

Создавать темы 30-Мар-2016 17:54 (спустя 6 минут)

[Цитировать]

8 просмотров за 2 месяца, по моему тебе на пенсию пора, хватку потерял и полюса местами поменялись, Инь от Яне не можешь отличить , беда с тобой да и только bn
[Профиль] [ЛС]

skorpionN ®

Пол:

Стаж: 1 год 8 месяцев

Сообщений: 592



Награды: 4 (Подробнее)

Mega Seeder 3 (Количество: 1) Mega Seeder 1 (Количество: 1) Mega Seeder 2 (Количество: 1)
Торрент-статистика

Создавать темы 31-Мар-2016 08:29 (спустя 14 часов)

[Цитировать]

928878 просмотров за 2 месяца, по моему тебе на пенсию пора, хватку потерял и полюса местами поменялись, Инь от Яне не можешь отличить , беда с тобой да и только bn
На ютубчике такое не смотрится.
[Профиль] [ЛС]
Кто просматривает тему:

Форум Тема Автор Размер
Viasat Nature Viasat Nature: BBC: Экспедиция в Новую Гвинею / Expedition New Guinea (Jonny Young) [серии 1-3 из 3] [2009 г., Документальный, природа, флора, фауна, HDTVRip 720p] skorpionN 4.53 GB
Viasat Nature Viasat Nature: Австралия: путешествие сквозь эволюцию / Australia - A Journey Through Evolution (Laura Casamayor del Rincon) [2014 г., Документальный, познавательный, SATRip] skorpionN 744 MB
Viasat Nature Viasat Nature: Баварское горное королевство / Allgäu - Im Land des Märchenkönigs (Bavaria's Alpine Kingdom) (Жан Хафт / Jan Haft) [2009 г., Документальный, путешествия, природа, SATRip] skorpionN 786 MB
Viasat Nature Viasat Nature: Большой Кавказ / The Greater Caucasus (Хенри М. Микс) [2014 г., Документальный, путешествия, флора, фауна, SATRip] skorpionN 706 MB
Viasat Nature Viasat Nature: Вторжение гигантских питонов / Invasion Of The Giant Pythons: Florida With Nigel Marven (Metthew Wright) [2009 г., Документальный, природа, флора, фауна, HDTVRip 720p] skorpionN 1.42 GB
Viasat Nature Viasat Nature: Дикая природа и времена года / A Year in the Wild [серии 1-5 из 5] (Daniela Pulverer) [2014 г., Документальный, природа, флора, фауна, SATRip] skorpionN 3 GB
Viasat Nature Viasat Nature: Дикий Cевер / Wild North [серии 1-3 из 3] (Arne Naevra, Torgeir Lande, Adam Schmedes) [2015 г., Документальный, научно-познавательный, фауна, флора, SATRip] skorpionN 2.34 GB
Viasat Nature Viasat Nature: Европа и Мир за её пределами / Planet Europe & Beyond [серии 1-7 из 7] (Курт Мюндл) [2015 г., Документальный, познавательный, природа, флора, фауна, путешествие, туризм, HDTVRip 720p] skorpionN 12.68 GB
Показать сообщения:    

Текущее время: Сегодня 08:20

Часовой пояс: GMT



Вы не можете начинать темы
Вы не можете отвечать на сообщения
Вы не можете редактировать свои сообщения
Вы не можете удалять свои сообщения
Вы не можете голосовать в опросах
Вы не можете прикреплять файлы к сообщениям
Вы не можете скачивать файлы