Viasat Nature: Новая дикая природа. Могучие силы природы на маленьком островке земли / De nieuwe wildernis. Grote natuur in een klein land [эпизоды 1-3 из 3] (Ruben Smit, Марк Веркер) [2013 г., Документальный, природа, флора, фауна, SATRip]

 
Автор Сообщение

skorpionN ®

Пол:

Стаж: 1 год 8 месяцев

Сообщений: 591



Награды: 4 (Подробнее)

Top Releaser 2 (Количество: 1) Mega Seeder 1 (Количество: 1) Mega Seeder 2 (Количество: 1)
Торрент-статистика

Создавать темы 02-Май-2015 10:49

[Цитировать]

Viasat Nature: Новая дикая природа. Могучие силы природы на маленьком островке земли / De nieuwe wildernis. Grote natuur in een klein land [эпизоды 1-3 из 3]
Год выпуска: 2013
Страна: Нидерланды, EMS Films
Жанр: Документальный, природа, флора, фауна
Продолжительность: 3x~00:49:41
Перевод: Профессиональный (одноголосый), переведено и озвучено на студии "SDI Media" перевод Александры Домбровской, текст читает Юрий Большаков
Режиссер: Ruben Smit, Марк Веркер
Доп. информация:
Нидерландский кинофестиваль 2013, выиграл премию "Плакат фильма"
Нидерландский кинофестиваль 2014 года, выиграл "Приз зрительских симпатий" за лучший фильм
Награда Рембрандта 2014, выиграл премию Рембрандта "Лучший фильм Нидерландов" (Beste Nederlandse Film)
Описание: Программа рассказывает о нидерландском природном заповеднике Оствардерсплассе, животный мир которого представлен во всем богатстве и великолепии. Заповедник расположен всего лишь в 30 км от Амстердама. Однако там можно встретить самых близких родственников вымерших тарпанов, диких лошадей, и туров – польских коников. Просторы заповедника также рассекают благородные олени и быки Хека. За последние 40 лет этот край приютил самых редких птиц Европы, таких как, например, удивительные орланы-белохвосты.
Список серий:
Эпизод 1:
С наступлением весны на луга и пастбища начинают прилетать желтоголовые трупиалы, орланы и зимородки.
Эпизод 2:
Летом в природном заповеднике Оствардерсплассе жизнь бьет ключом. Сазаны в больших количествах устремляются в мелководье, чтобы метать икру.
Эпизод 3:
Осенью самцы красных оленей активизируются, и их часто можно найти сражающимися друг с другом. А с приходом зимы жизнь везде замирает.
Качество: SATRip
Формат: AVI
Видео кодек: XviD
Аудио кодек: AC3
Видео: 720x400 25fps 1800 Kbps
Аудио: AC3 2ch, 48kHz, 192 kbps

MediaInfo:

Complete name : E:\De nieuwe wildernis\01_Grote natuur in een klein land.avi
Format : AVI
Format/Info : Audio Video Interleave
File size : 711 MiB
Duration : 49mn 40s
Overall bit rate : 2 002 Kbps
Writing application : VirtualDubMod 1.5.10.3 | www.virtualdub-fr.org || (build 2550/release)
Writing library : VirtualDubMod build 2550/release
Video
ID : 0
Format : MPEG-4 Visual
Format profile : Advanced Simple@L5
Format settings, BVOP : 2
Format settings, QPel : Yes
Format settings, GMC : 3 warppoints
Format settings, Matrix : Default (H.263)
Codec ID : XVID
Codec ID/Hint : XviD
Duration : 49mn 40s
Bit rate : 1 800 Kbps
Width : 720 pixels
Height : 400 pixels
Display aspect ratio : 16:9
Frame rate : 25.000 fps
Color space : YUV
Chroma subsampling : 4:2:0
Bit depth : 8 bits
Scan type : Progressive
Compression mode : Lossy
Bits/(Pixel*Frame) : 0.250
Stream size : 640 MiB (90%)
Writing library : XviD 1.2.1 (UTC 2008-12-04)
Audio
ID : 1
Format : AC-3
Format/Info : Audio Coding 3
Mode extension : CM (complete main)
Format settings, Endianness : Big
Codec ID : 2000
Duration : 49mn 40s
Bit rate mode : Constant
Bit rate : 192 Kbps
Channel(s) : 2 channels
Channel positions : Front: L R
Sampling rate : 48.0 KHz
Compression mode : Lossy
Stream size : 68.2 MiB (10%)
Alignment : Split accross interleaves
Interleave, duration : 40 ms (1.00 video frame)
Interleave, preload duration : 500 ms

Внимание! Раздача ведётся путём добавления новых выпусков

Внимание! Раздача ведётся путём добавления новых выпусков; при каждом добавлении создаётся новый торрент. Чтобы начать докачку нового выпуска, пользователям необходимо сделать следующее:
(1) остановить скачивание,
(2) удалить старый торрент у себя из клиента (старые серии удалять не надо),
(3) скачать новый торрент и запустить его у себя в клиенте вместо старого, при этом указать клиенту путь в старую папку куда и должно происходить скачивание новых выпусков.
Ваш клиент при этом должен произвести хеширование (проверку) старой папки (если не производит сам - помогите ему сделать это). В результате он будет докачивать только те выпуски, которых у Вас ещё нет. Старые выпуски при этом не удаляются, а продолжают раздаваться!
Eсли Вы уже удалили старые выпуски, то предотвратить их повторную закачку можно, сняв галочки в соответствующих местах при запуске нового торрента. По возможности, желательно не удалять старые выпуски как можно дольше, чтобы релизёр не только продолжал раздавать старые выпуски, но и смог сконцентрироваться на новых.
Добавлено эпизод 03
[Профиль] [ЛС]
Кто просматривает тему:

Форум Тема Автор Размер
Viasat Nature Viasat Nature: BBC: Экспедиция в Новую Гвинею / Expedition New Guinea (Jonny Young) [серии 1-3 из 3] [2009 г., Документальный, природа, флора, фауна, HDTVRip 720p] skorpionN 4.53 GB
Viasat Nature Viasat Nature: Австралия: путешествие сквозь эволюцию / Australia - A Journey Through Evolution (Laura Casamayor del Rincon) [2014 г., Документальный, познавательный, SATRip] skorpionN 744 MB
Viasat Nature Viasat Nature: Баварское горное королевство / Allgäu - Im Land des Märchenkönigs (Bavaria's Alpine Kingdom) (Жан Хафт / Jan Haft) [2009 г., Документальный, путешествия, природа, SATRip] skorpionN 786 MB
Viasat Nature Viasat Nature: Большой Кавказ / The Greater Caucasus (Хенри М. Микс) [2014 г., Документальный, путешествия, флора, фауна, SATRip] skorpionN 706 MB
Viasat Nature Viasat Nature: Вторжение гигантских питонов / Invasion Of The Giant Pythons: Florida With Nigel Marven (Metthew Wright) [2009 г., Документальный, природа, флора, фауна, HDTVRip 720p] skorpionN 1.42 GB
Viasat Nature Viasat Nature: Дикая природа и времена года / A Year in the Wild [серии 1-5 из 5] (Daniela Pulverer) [2014 г., Документальный, природа, флора, фауна, SATRip] skorpionN 3 GB
Viasat Nature Viasat Nature: Дикий Cевер / Wild North [серии 1-3 из 3] (Arne Naevra, Torgeir Lande, Adam Schmedes) [2015 г., Документальный, научно-познавательный, фауна, флора, SATRip] skorpionN 2.34 GB
Viasat Nature Viasat Nature: Европа и Мир за её пределами / Planet Europe & Beyond [серии 1-7 из 7] (Курт Мюндл) [2015 г., Документальный, познавательный, природа, флора, фауна, путешествие, туризм, HDTVRip 720p] skorpionN 12.68 GB
Показать сообщения:    

Текущее время: Сегодня 05:17

Часовой пояс: GMT



Вы не можете начинать темы
Вы не можете отвечать на сообщения
Вы не можете редактировать свои сообщения
Вы не можете удалять свои сообщения
Вы не можете голосовать в опросах
Вы не можете прикреплять файлы к сообщениям
Вы не можете скачивать файлы