Viasat Nature: Найджел Марвен и его индюшки / My Family and Other Turkeys with Nigel Marven (Алекс Минтон / Alex Minton) [2014 г., Документальный, познавательный, SATRip]

 
Автор Сообщение

skorpionN ®

Пол:

Стаж: 1 год 8 месяцев

Сообщений: 589



Награды: 4 (Подробнее)

Mega Seeder 3 (Количество: 1) Mega Seeder 2 (Количество: 1) Mega Seeder 1 (Количество: 1)
Торрент-статистика

Создавать темы 10-Май-2015 15:48

[Цитировать]

Viasat Nature: Найджел Марвен и его индюшки / My Family and Other Turkeys with Nigel Marven
Год выпуска: 2014
Страна: Великобритания, Image Imact LTD
Жанр: Документальный, познавательный
Продолжительность: 00:43:36
Перевод: Профессиональный (одноголосый)
Режиссер: Алекс Минтон / Alex Minton
В ролях: Натуралист Найджел Марвен
Описание: Британский телеведущий Найджел Марвен не понаслышке знает об индейках, ведь он разводит их у себя дома. В этой программе он расскажет о поведении этих необычных птиц. Мы также узнаем историю о том, как коренные американцы открыли для себя индюшек, и почему эти птицы имели огромное значение в жизни человека на протяжении многих веков.
Качество: SATRip
Формат: AVI
Видео кодек: XviD
Аудио кодек: AC3
Видео: 704x400 25fps 1800 Kbps
Аудио: AC3 2ch, 48kHz, 192 kbps

Скриншоты


MediaInfo:

Format : AVI
Format/Info : Audio Video Interleave
File size : 621 MiB
Duration : 43mn 36s
Overall bit rate : 1 993 Kbps
Writing application : TMPGEnc Video Mastering Works 5 Version. 5.0.6.38
Writing library : TMPGEnc Video Mastering Works 5 Version. 5.0.6.38
Video
ID : 0
Format : MPEG-4 Visual
Format profile : Advanced Simple@L5
Format settings, BVOP : 2
Format settings, QPel : No
Format settings, GMC : No warppoints
Format settings, Matrix : Default (H.263)
Muxing mode : Packed bitstream
Codec ID : XVID
Codec ID/Hint : XviD
Duration : 43mn 36s
Bit rate : 1 794 Kbps
Width : 704 pixels
Height : 400 pixels
Display aspect ratio : 16:9
Frame rate : 25.000 fps
Color space : YUV
Chroma subsampling : 4:2:0
Bit depth : 8 bits
Scan type : Progressive
Compression mode : Lossy
Bits/(Pixel*Frame) : 0.255
Stream size : 559 MiB (90%)
Writing library : XviD 73
Audio
ID : 1
Format : AC-3
Format/Info : Audio Coding 3
Mode extension : CM (complete main)
Format settings, Endianness : Big
Codec ID : 2000
Duration : 43mn 36s
Bit rate mode : Constant
Bit rate : 192 Kbps
Channel(s) : 2 channels
Channel positions : Front: L R
Sampling rate : 48.0 KHz
Compression mode : Lossy
Stream size : 59.9 MiB (10%)
Alignment : Aligned on interleaves
Interleave, duration : 480 ms (12.00 video frames)
[Профиль] [ЛС]

KiruhaDelMar

Стаж: 1 год 8 месяцев

Сообщений: 247



Награды: Нет

Торрент-статистика

Создавать темы 11-Май-2015 12:10 (спустя 20 часов)

[Цитировать]

круче названия еще не видел , следующий сериал про петухов наверное снимет: Найджел Марвин и его петухи
[Профиль] [ЛС]

ARI71

Стаж: 3 месяца 24 дня

Сообщений: 62



Награды: Нет

Торрент-статистика

Создавать темы 16-Авг-2016 18:45 (спустя 1 год 3 месяца)

[Цитировать]

Спасибо за редкие фильмы!
[Профиль] [ЛС]
Кто просматривает тему:

Форум Тема Автор Размер
Viasat Nature Viasat Nature: BBC: Экспедиция в Новую Гвинею / Expedition New Guinea (Jonny Young) [серии 1-3 из 3] [2009 г., Документальный, природа, флора, фауна, HDTVRip 720p] skorpionN 4.53 GB
Viasat Nature Viasat Nature: Австралия: путешествие сквозь эволюцию / Australia - A Journey Through Evolution (Laura Casamayor del Rincon) [2014 г., Документальный, познавательный, SATRip] skorpionN 744 MB
Viasat Nature Viasat Nature: Баварское горное королевство / Allgäu - Im Land des Märchenkönigs (Bavaria's Alpine Kingdom) (Жан Хафт / Jan Haft) [2009 г., Документальный, путешествия, природа, SATRip] skorpionN 786 MB
Viasat Nature Viasat Nature: Большой Кавказ / The Greater Caucasus (Хенри М. Микс) [2014 г., Документальный, путешествия, флора, фауна, SATRip] skorpionN 706 MB
Viasat Nature Viasat Nature: Вторжение гигантских питонов / Invasion Of The Giant Pythons: Florida With Nigel Marven (Metthew Wright) [2009 г., Документальный, природа, флора, фауна, HDTVRip 720p] skorpionN 1.42 GB
Viasat Nature Viasat Nature: Дикая природа и времена года / A Year in the Wild [серии 1-5 из 5] (Daniela Pulverer) [2014 г., Документальный, природа, флора, фауна, SATRip] skorpionN 3 GB
Viasat Nature Viasat Nature: Дикий Cевер / Wild North [серии 1-3 из 3] (Arne Naevra, Torgeir Lande, Adam Schmedes) [2015 г., Документальный, научно-познавательный, фауна, флора, SATRip] skorpionN 2.34 GB
Viasat Nature Viasat Nature: Европа и Мир за её пределами / Planet Europe & Beyond [серии 1-7 из 7] (Курт Мюндл) [2015 г., Документальный, познавательный, природа, флора, фауна, путешествие, туризм, HDTVRip 720p] skorpionN 12.68 GB
Показать сообщения:    

Текущее время: Сегодня 12:47

Часовой пояс: GMT



Вы не можете начинать темы
Вы не можете отвечать на сообщения
Вы не можете редактировать свои сообщения
Вы не можете удалять свои сообщения
Вы не можете голосовать в опросах
Вы не можете прикреплять файлы к сообщениям
Вы не можете скачивать файлы