Viasat Nature: Животный инстинкт / Wild Instinct [сезоны 2-3 серии 1-6 из 6] (Фитджеральд Джего) [2015 г., Документальный, природа, флора, фауна, SATRip]

 
Автор Сообщение

skorpionN ®

Пол:

Стаж: 1 год 8 месяцев

Сообщений: 592



Награды: 4 (Подробнее)

Mega Seeder 1 (Количество: 1) Top Releaser 2 (Количество: 1) Mega Seeder 3 (Количество: 1)
Торрент-статистика

Создавать темы 05-Мар-2016 11:38

[Цитировать]

Viasat Nature: Животный инстинкт / Wild Instinct [сезоны 2-3 серии 1-6 из 6]
Год выпуска: 2015
Страна: Франция, A One Planet Production
Жанр: Документальный, природа, флора, фауна
Продолжительность: 6x~00:53:19
Перевод: Профессиональный (одноголосый), переведено и озвучено на студии "SDI Media" ,перевод И. Рябоконь, текст читает Г.Скуч
Режиссер: Фитджеральд Джегоб, Laurent Frapat
В ролях: Оливье Хоуалет
Качество: SATRip
Формат: AVI
Видео кодек: XviD
Аудио кодек: AC3
Видео: 704x400 25fps 1800 kbps
Аудио: AC3 2ch, 48kHz, 192 kbps
Описание: Мы отправимся в путешествие, чтобы своими глазами увидеть первозданную красоту, скрытую в глубине сохранившихся уголков девственной природы. Это потребует умения ориентироваться на местности, приспосабливаться к непредсказуемой погоде и преодолевать свои страхи: переправляться пешком через мутные болота, сохранять спокойствие при встрече с дикими животными, питаться местной едой, останавливаться на привал посреди солончаковой пустыни с экстремальными колебаниями температур или передвигаться по джунглям в условиях изнурительной влажности. Знаток гепардов Оливье Хоуалет поможет нам исполнить мечту и окунуться в лоно природы. Мы побываем с ним в дикой Танзании, лесистой Уганде, на тропическом острове Суматра и побережье Британской Колумбии, познакомимся с загадочным Пантаналом и скрытыми сокровищами Перу.Список серий:Сезон 2:

01. Уганда: доминантные гиганты. / Uganda. The Silverback Giants

Мы пересечем Нил и отправимся в путешествие, которое приведет нас к древней королевской цапле, последним жирафам Ротшильда и гориллам, обитающим в этих густых лесах.

02. Суматра: по следам орангутангов / Sumatra. On the tracks of the Orangutans

Зрители увидят неуловимых лесных слонов, последних суматранских носорогов и застенчивых орангутангов. Этому райскому месту, родине десятой части всех разновидностей растений, угрожает вырубка леса.

03. Танзания. Встреча с последними шимпанзе / Tanzania. Meeting the Last Chimpanzees

Мы отправляемся в путешествие по Африке, где более шести миллионов лет назад обитал общий предок шимпанзе и людей, а также понаблюдаем за ориксами и колобусами в естественной среде обитания.
Сезон 3:

01. Британская Колумбия. Канада: встреча с гризли / British Columbia. Facing Grizzlies

Добро пожаловать в Британскую Колумбию, на родину горбатых китов, морских выдр и орлов. В чаще леса обитают черные медведи и их родичи, свирепые гризли, охотящиеся на лососей.

02. Бразилия: ягуары — хозяева Пантанала / Brazil: The Lorfs of the Pantanal

В Пантанале, зеленой жемчужине Бразилии, настоящий рай для анаконд и капибар. Самым неуловимым животным здесь является ягуар — король этих затопленных саванн.

03. Перу: В поисках андского медведя / Peru: Looking for the Andean Bear

В последней серии сезона мы отправимся к берегу Тихого океана в поисках пингвинов Гумбольдта, голубоногих олуш и морских котиков. В лесу обитает очковый медведь, которого довелось видеть немногим.

Скриншоты


MediaInfo:

Format : AVI
Format/Info : Audio Video Interleave
File size : 762 MiB
Duration : 53mn 19s
Overall bit rate : 1 998 Kbps
Writing application : TMPGEnc Video Mastering Works 5 Version. 5.0.6.38
Writing library : TMPGEnc Video Mastering Works 5 Version. 5.0.6.38
Video
ID : 0
Format : MPEG-4 Visual
Format profile : Advanced Simple@L5
Format settings, BVOP : 2
Format settings, QPel : No
Format settings, GMC : No warppoints
Format settings, Matrix : Default (H.263)
Muxing mode : Packed bitstream
Codec ID : XVID
Codec ID/Hint : XviD
Duration : 53mn 19s
Bit rate : 1 799 Kbps
Width : 704 pixels
Height : 400 pixels
Display aspect ratio : 16:9
Frame rate : 25.000 fps
Color space : YUV
Chroma subsampling : 4:2:0
Bit depth : 8 bits
Scan type : Progressive
Compression mode : Lossy
Bits/(Pixel*Frame) : 0.256
Stream size : 686 MiB (90%)
Writing library : XviD 73
Audio
ID : 1
Format : AC-3
Format/Info : Audio Coding 3
Mode extension : CM (complete main)
Format settings, Endianness : Big
Codec ID : 2000
Duration : 53mn 19s
Bit rate mode : Constant
Bit rate : 192 Kbps
Channel(s) : 2 channels
Channel positions : Front: L R
Sampling rate : 48.0 KHz
Bit depth : 16 bits
Compression mode : Lossy
Stream size : 73.2 MiB (10%)
Alignment : Aligned on interleaves
Interleave, duration : 240 ms (6.00 video frames)
Interleave, preload duration : 224 ms

Внимание:

Раздача ведётся путём добавления новых серий; при каждом добавлении создаётся новый торрент. Чтобы начать докачку новой серии, пользователям необходимо сделать следующее:
- Остановить скачивание.
- Удалить старый торрент у себя из клиента (старые серии удалять не надо).
- Скачать новый торрент и запустить его у себя в клиенте вместо старого, при этом указать клиенту путь в старую папку куда и должно происходить скачивание новых серий.
Добавлено сезон 3
03. Перу: В поисках андского медведя / Peu: Looking for the Andean Bear
Viasat Nature: Животный инстинкт / Wild Instinct SatRip [сезоны 2-3]
Viasat Nature: Животный инстинкт / Wild Instinct HDTVRip 720p [сезоны 2-3]
[Профиль] [ЛС]
Кто просматривает тему:

Форум Тема Автор Размер
Viasat Nature Viasat Nature: BBC: Экспедиция в Новую Гвинею / Expedition New Guinea (Jonny Young) [серии 1-3 из 3] [2009 г., Документальный, природа, флора, фауна, HDTVRip 720p] skorpionN 4.53 GB
Viasat Nature Viasat Nature: Австралия: путешествие сквозь эволюцию / Australia - A Journey Through Evolution (Laura Casamayor del Rincon) [2014 г., Документальный, познавательный, SATRip] skorpionN 744 MB
Viasat Nature Viasat Nature: Баварское горное королевство / Allgäu - Im Land des Märchenkönigs (Bavaria's Alpine Kingdom) (Жан Хафт / Jan Haft) [2009 г., Документальный, путешествия, природа, SATRip] skorpionN 786 MB
Viasat Nature Viasat Nature: Большой Кавказ / The Greater Caucasus (Хенри М. Микс) [2014 г., Документальный, путешествия, флора, фауна, SATRip] skorpionN 706 MB
Viasat Nature Viasat Nature: Вторжение гигантских питонов / Invasion Of The Giant Pythons: Florida With Nigel Marven (Metthew Wright) [2009 г., Документальный, природа, флора, фауна, HDTVRip 720p] skorpionN 1.42 GB
Viasat Nature Viasat Nature: Дикая природа и времена года / A Year in the Wild [серии 1-5 из 5] (Daniela Pulverer) [2014 г., Документальный, природа, флора, фауна, SATRip] skorpionN 3 GB
Viasat Nature Viasat Nature: Дикий Cевер / Wild North [серии 1-3 из 3] (Arne Naevra, Torgeir Lande, Adam Schmedes) [2015 г., Документальный, научно-познавательный, фауна, флора, SATRip] skorpionN 2.34 GB
Viasat Nature Viasat Nature: Европа и Мир за её пределами / Planet Europe & Beyond [серии 1-7 из 7] (Курт Мюндл) [2015 г., Документальный, познавательный, природа, флора, фауна, путешествие, туризм, HDTVRip 720p] skorpionN 12.68 GB
Показать сообщения:    

Текущее время: Сегодня 10:59

Часовой пояс: GMT



Вы не можете начинать темы
Вы не можете отвечать на сообщения
Вы не можете редактировать свои сообщения
Вы не можете удалять свои сообщения
Вы не можете голосовать в опросах
Вы не можете прикреплять файлы к сообщениям
Вы не можете скачивать файлы