Viasat Nature: Европа и Мир за её пределами / Planet Europe & Beyond [серии 1-7 из 7] (Курт Мюндл) [2015 г., Документальный, познавательный, природа, флора, фауна, путешествие, туризм, HDTVRip 720p]

 
Автор Сообщение

skorpionN ®

Пол:

Стаж: 1 год 8 месяцев

Сообщений: 591



Награды: 4 (Подробнее)

Mega Seeder 1 (Количество: 1) Mega Seeder 2 (Количество: 1) Mega Seeder 3 (Количество: 1)
Торрент-статистика

Создавать темы 17-Фев-2016 18:55

[Цитировать]

Viasat Nature: Европа и Мир за её пределами / Planet Europe & Beyond [серии 1-7 из 7]
Год выпуска: 2015
Страна: Австрия, ORF Universum, ORF Enterprise, Power of Earth TV & Film Productions
Жанр: Документальный, познавательный, природа, флора, фауна, путешествие, туризм
Продолжительность: 7x~00:50:30
Перевод: Профессиональный (одноголосый), переведено и озвучено на студии "SDI Media" перевод Г. Максимова, текст читает Анатолий Фечин
Режиссер: Курт Мюндл
Описание: От ледяного великолепия полярных регионов до бесплодных пустынь Намибии – эта документальная программа знакомит зрителей с растительным и животным миром планеты, а также геологией и многовековым влиянием климата на различные территории.
Список серий:
01. Дикие просторы на краю света. Скандинавия. Последний рай для животных в Европе / Wilderness at the end of the World. Scandinavia. The last animal paradise in Europe
Зов крайнего севера - Скандинавия и Шпицберген. Медведи, гну и редкие птицы живут и охотятся среди обширных лесов и великолепной морозной тундры. Зрители познакомятся с роскошным растительным миром Скандинавии.
02. Крупнейшая миграция животных в мире и смерть её сопровождающая / The Largest Animal Migration in the World and Death Travels with them
Крупнейшая миграция животных в мире: из Кении в Танзанию и обратно. В увлекательной документальной программе рассказывается об африканской саванне и миграции гну - крупнейшем передвижении популяции животных.
03. Выживание на краю света. Жизнь на полюсах / Survival at the ends of the World. From Pole to Pole
7-й континент - Антарктида. Эта документальная программа знакомит зрителей с восхитительной популяций пингвинов, тюленей, китов и морских птиц, живущих среди ледников Антарктики.
04. В ослепительной Калахари / In the Blazing Kalahari
Выжить любой ценой - в пекле Калахари. Увлекательная документальная программа знакомит зрителей с многочисленными обитателями пустыни Калахари, для которых отсутствие воды не является помехой.
05. Намибия. 1-я часть: Дикий северо-восток Намибии / Namibia. part-1 Namibia's Wild Northeast
Полоса Каприви богата пресной водой и покрыта густой растительностью. Эта захватывающая документальная программа знакомит зрителей с жизнью бушменов.
06. Намибия. 2-я часть: От реки Окаванго до Оранжевой / Namibia. part-2. From Okavango to Orange
Кейп-Кросс населяют разнообразные животные: от фламинго до слонов. Зрители увидят этих удивительных существ в естественной среде обитания. От ледяного великолепия полярных регионов до бесплодных пустынь Намибии - эта документальная программа знакомит зрителей с растительным и животным миром планеты, а также геологией и многовековым влиянием климата на различные территории.
07. Холодные дождевые леса / Cold Rainforests
Расположенные в Атлантическом океане небольшие архипелаги и покрытая зеленью Новая Зеландия хранят очень необычную экосистему. Документальная программа познакомит зрителей с неизвестными фактами из жизни тропических лесов и уникальных обитателей Новой Зеландии.
Качество: HDTVRip 720p
Формат: MKV
Видео кодек: H.264
Аудио кодек: AC3
Видео: 1280x720 50.00fps 5000 Kbps
Аудио: AC3 2ch, 48kHz, 192 kbps

Скриншоты


MediaInfo:

Format : Matroska
Format version : Version 2
File size : 1.81 GiB
Duration : 50mn 29s
Overall bit rate mode : Constant
Overall bit rate : 5 123 Kbps
Encoded date : UTC 2016-02-17 16:08:35
Writing application : TMPGEnc Video Mastering Works 5 Version. 5.0.6.38
Writing library : TMPGEnc Video Mastering Works 5 Version. 5.0.6.38
Video
ID : 2
Format : AVC
Format/Info : Advanced Video Codec
Format profile : High@L4.1
Format settings, CABAC : Yes
Format settings, ReFrames : 3 frames
Codec ID : V_MPEG4/ISO/AVC
Duration : 50mn 29s
Bit rate mode : Constant
Bit rate : 5 000 Kbps / 5 000 Kbps
Width : 1 280 pixels
Height : 720 pixels
Display aspect ratio : 16:9
Frame rate mode : Constant
Frame rate : 50.000 fps
Standard : NTSC
Color space : YUV
Chroma subsampling : 4:2:0
Bit depth : 8 bits
Scan type : Progressive
Bits/(Pixel*Frame) : 0.109
Stream size : 1.70 GiB (94%)
Writing library : x264 core 114
Encoding settings : cabac=1 / ref=3 / deblock=1:0:0 / analyse=0x3:0x113 / me=hex / subme=7 / psy=1 / psy_rd=1.00:0.00 / mixed_ref=1 / me_range=16 / chroma_me=1 / trellis=1 / 8x8dct=1 / cqm=2 / deadzone=21,11 / fast_pskip=1 / chroma_qp_offset=-2 / threads=6 / sliced_threads=0 / slices=1 / nr=0 / decimate=1 / interlaced=0 / constrained_intra=0 / bframes=3 / b_pyramid=0 / b_adapt=1 / b_bias=0 / direct=1 / weightb=1 / open_gop=0 / weightp=2 / keyint=250 / keyint_min=25 / scenecut=40 / intra_refresh=0 / rc_lookahead=40 / rc=cbr / mbtree=1 / bitrate=5000 / ratetol=1.0 / qcomp=0.60 / qpmin=3 / qpmax=69 / qpstep=4 / vbv_maxrate=5000 / vbv_bufsize=4997 / nal_hrd=cbr / ip_ratio=1.40 / aq=1:1.00
Default : Yes
Forced : No
Color primaries : BT.709
Transfer characteristics : BT.709
Matrix coefficients : BT.709
Color range : Limited
Audio
ID : 1
Format : AC-3
Format/Info : Audio Coding 3
Mode extension : CM (complete main)
Format settings, Endianness : Big
Codec ID : A_AC3
Duration : 50mn 29s
Bit rate mode : Constant
Bit rate : 192 Kbps
Channel(s) : 2 channels
Channel positions : Front: L R
Sampling rate : 48.0 KHz
Bit depth : 16 bits
Compression mode : Lossy
Stream size : 69.3 MiB (4%)
Default : Yes
Forced : No

Внимание:

Раздача ведётся путём добавления новых серий; при каждом добавлении создаётся новый торрент. Чтобы начать докачку новой серии, пользователям необходимо сделать следующее:
- Остановить скачивание.
- Удалить старый торрент у себя из клиента (старые серии удалять не надо).
- Скачать новый торрент и запустить его у себя в клиенте вместо старого, при этом указать клиенту путь в старую папку куда и должно происходить скачивание новых серий.
Добавлено
07. Холодные дождевые леса / Cold Rainforests
Viasat Nature: Европа и Мир за её пределами / Planet Europe & Beyond [SATRip]
Viasat Nature: Европа и Мир за её пределами / Planet Europe & Beyond HDTVRip 720p]
[Профиль] [ЛС]

skorpionN ®

Пол:

Стаж: 1 год 8 месяцев

Сообщений: 591



Награды: 4 (Подробнее)

Mega Seeder 1 (Количество: 1) Mega Seeder 3 (Количество: 1) Top Releaser 2 (Количество: 1)
Торрент-статистика

Создавать темы 28-Мар-2016 19:11 (спустя 1 месяц 11 дней)

[Цитировать]

Сезон окончен
[Профиль] [ЛС]
Кто просматривает тему:

Форум Тема Автор Размер
Viasat Nature Viasat Nature: BBC: Экспедиция в Новую Гвинею / Expedition New Guinea (Jonny Young) [серии 1-3 из 3] [2009 г., Документальный, природа, флора, фауна, HDTVRip 720p] skorpionN 4.53 GB
Viasat Nature Viasat Nature: Австралия: путешествие сквозь эволюцию / Australia - A Journey Through Evolution (Laura Casamayor del Rincon) [2014 г., Документальный, познавательный, SATRip] skorpionN 744 MB
Viasat Nature Viasat Nature: Баварское горное королевство / Allgäu - Im Land des Märchenkönigs (Bavaria's Alpine Kingdom) (Жан Хафт / Jan Haft) [2009 г., Документальный, путешествия, природа, SATRip] skorpionN 786 MB
Viasat Nature Viasat Nature: Большой Кавказ / The Greater Caucasus (Хенри М. Микс) [2014 г., Документальный, путешествия, флора, фауна, SATRip] skorpionN 706 MB
Viasat Nature Viasat Nature: Вторжение гигантских питонов / Invasion Of The Giant Pythons: Florida With Nigel Marven (Metthew Wright) [2009 г., Документальный, природа, флора, фауна, HDTVRip 720p] skorpionN 1.42 GB
Viasat Nature Viasat Nature: Дикая природа и времена года / A Year in the Wild [серии 1-5 из 5] (Daniela Pulverer) [2014 г., Документальный, природа, флора, фауна, SATRip] skorpionN 3 GB
Viasat Nature Viasat Nature: Дикий Cевер / Wild North [серии 1-3 из 3] (Arne Naevra, Torgeir Lande, Adam Schmedes) [2015 г., Документальный, научно-познавательный, фауна, флора, SATRip] skorpionN 2.34 GB
Viasat Nature Viasat Nature: Европа и Мир за её пределами / Planet Europe & Beyond [серии 1-7 из 7] (Курт Мюндл) [2015 г., Документальный, познавательный, природа, флора, фауна, путешествие, туризм, SATRip] skorpionN 4.95 GB
Показать сообщения:    

Текущее время: Сегодня 22:23

Часовой пояс: GMT



Вы не можете начинать темы
Вы не можете отвечать на сообщения
Вы не можете редактировать свои сообщения
Вы не можете удалять свои сообщения
Вы не можете голосовать в опросах
Вы не можете прикреплять файлы к сообщениям
Вы не можете скачивать файлы