Viasat Nature: Дикая природа и времена года / A Year in the Wild [серии 1-5 из 5] (Daniela Pulverer) [2014 г., Документальный, природа, флора, фауна, SATRip]

 
Автор Сообщение

skorpionN ®

Пол:

Стаж: 1 год 8 месяцев

Сообщений: 586



Награды: 4 (Подробнее)

Mega Seeder 1 (Количество: 1) Mega Seeder 2 (Количество: 1) Top Releaser 2 (Количество: 1)
Торрент-статистика

Создавать темы 01-Апр-2016 16:39

[Цитировать]

Viasat Nature: Дикая природа и времена года / A Year in the Wild [серии 1-5 из 5]
Год выпуска: 2014
Страна: ЮАР, Earth Touch & Off The Fence Productions
Жанр: Документальный, природа, флора, фауна
Продолжительность: 5x~00:43:00
Перевод: Профессиональный (одноголосый), переведено и озвучено на студии "SDI Media" , перевод Ольги Юлдашеврй, Алисы Хазиной, текст читает Роман Антанович
Режиссер: Daniela Pulverer
Описание: Путешествуя в течение года по всему миру, мы станем свидетелями того, как смена времен года влияет на разные континенты нашей планеты, а также как с этими изменениями справляются животные и растения. Например, во время сезона дождей в Африке растительный мир оживает, и такие животные, как белогорлая мартышка, могут наслаждаться любимым лакомством — инжиром. Однако, когда дожди прекращаются, и наступает засуха, животным приходится бороться за свое выживание. А на северных территориях температура может опускаться ниже нуля, но в результате глобального потепления лед образуется крайне медленно. С каждым годом погодные условия становятся всё более суровыми, тем не менее, растения и животные приобретают новые навыки выживания. Нас ждет незабываемое приключение, благодаря которому мы откроем удивительные тайны мира дикой природы и узнаем о том, что приходится преодолевать обитателям нашей планеты во время смены сезонов.
Список серий:
01. Новый год в центре Африки начинается с сезона дождей, и животные могут наслаждаться пышной растительностью.
02. В апреле в Южной Америке настало время для попугаев калита строить свои огромные гнезда. Таким же образом летучие мыши в Южной Африке строят свои гнезда большими группами.
03. В середине года стая львов охотится за своей излюбленной добычей – бизоном. На Сейшелах сухопутные крабы собирают и защищают свой любимый белый цветок.
04. В Африке наступает засуха, и для многих животных поиск пищи становится настоящей борьбой за выживание. В Таиланде сезон дождей затопил рисовые поля и, тем самым, привлек множество красочных птиц.
05. В ноябре в северном полушарии планеты наступает суровая зима. Полярные медведи собираются на берегах Канады в ожидании открытия пути к главному источнику их пропитания – тюленям.
Качество: SATRip
Формат: AVI
Видео кодек: XviD
Аудио кодек: AC3
Видео: 720x400 25fps ~1800 Kbps
Аудио: AC3 2ch, 48kHz, 192 kbps

Скриншоты


MediaInfo:

Format : AVI
Format/Info : Audio Video Interleave
File size : 614 MiB
Duration : 43mn 0s
Overall bit rate : 1 995 Kbps
Writing application : TMPGEnc Video Mastering Works 5 Version. 5.0.6.38
Writing library : TMPGEnc Video Mastering Works 5 Version. 5.0.6.38
Video
ID : 0
Format : MPEG-4 Visual
Format profile : Advanced Simple@L5
Format settings, BVOP : 2
Format settings, QPel : No
Format settings, GMC : No warppoints
Format settings, Matrix : Default (H.263)
Muxing mode : Packed bitstream
Codec ID : XVID
Codec ID/Hint : XviD
Duration : 43mn 0s
Bit rate : 1 796 Kbps
Width : 704 pixels
Height : 400 pixels
Display aspect ratio : 16:9
Frame rate : 25.000 fps
Color space : YUV
Chroma subsampling : 4:2:0
Bit depth : 8 bits
Scan type : Progressive
Compression mode : Lossy
Bits/(Pixel*Frame) : 0.255
Stream size : 553 MiB (90%)
Writing library : XviD 73
Audio
ID : 1
Format : AC-3
Format/Info : Audio Coding 3
Mode extension : CM (complete main)
Format settings, Endianness : Big
Codec ID : 2000
Duration : 43mn 0s
Bit rate mode : Constant
Bit rate : 192 Kbps
Channel(s) : 2 channels
Channel positions : Front: L R
Sampling rate : 48.0 KHz
Bit depth : 16 bits
Compression mode : Lossy
Stream size : 59.1 MiB (10%)
Alignment : Aligned on interleaves
Interleave, duration : 240 ms (6.00 video frames)
Interleave, preload duration : 224 ms

Внимание:

Раздача ведётся путём добавления новых серий; при каждом добавлении создаётся новый торрент. Чтобы начать докачку новой серии, пользователям необходимо сделать следующее:
- Остановить скачивание.
- Удалить старый торрент у себя из клиента (старые серии удалять не надо).
- Скачать новый торрент и запустить его у себя в клиенте вместо старого, при этом указать клиенту путь в старую папку куда и должно происходить скачивание новых серий.
Добавлены 1 и 5 выпуски
[Профиль] [ЛС]
Кто просматривает тему:

Форум Тема Автор Размер
Viasat Nature Viasat Nature: BBC: Экспедиция в Новую Гвинею / Expedition New Guinea (Jonny Young) [серии 1-3 из 3] [2009 г., Документальный, природа, флора, фауна, HDTVRip 720p] skorpionN 4.53 GB
Viasat Nature Viasat Nature: Австралия: путешествие сквозь эволюцию / Australia - A Journey Through Evolution (Laura Casamayor del Rincon) [2014 г., Документальный, познавательный, SATRip] skorpionN 744 MB
Viasat Nature Viasat Nature: Баварское горное королевство / Allgäu - Im Land des Märchenkönigs (Bavaria's Alpine Kingdom) (Жан Хафт / Jan Haft) [2009 г., Документальный, путешествия, природа, SATRip] skorpionN 786 MB
Viasat Nature Viasat Nature: Большой Кавказ / The Greater Caucasus (Хенри М. Микс) [2014 г., Документальный, путешествия, флора, фауна, SATRip] skorpionN 706 MB
Viasat Nature Viasat Nature: Вторжение гигантских питонов / Invasion Of The Giant Pythons: Florida With Nigel Marven (Metthew Wright) [2009 г., Документальный, природа, флора, фауна, HDTVRip 720p] skorpionN 1.42 GB
Viasat Nature Viasat Nature: Дикий Cевер / Wild North [серии 1-3 из 3] (Arne Naevra, Torgeir Lande, Adam Schmedes) [2015 г., Документальный, научно-познавательный, фауна, флора, SATRip] skorpionN 2.34 GB
Viasat Nature Viasat Nature: Европа и Мир за её пределами / Planet Europe & Beyond [серии 1-7 из 7] (Курт Мюндл) [2015 г., Документальный, познавательный, природа, флора, фауна, путешествие, туризм, HDTVRip 720p] skorpionN 12.68 GB
Viasat Nature Viasat Nature: Европа и Мир за её пределами / Planet Europe & Beyond [серии 1-7 из 7] (Курт Мюндл) [2015 г., Документальный, познавательный, природа, флора, фауна, путешествие, туризм, SATRip] skorpionN 4.95 GB
Показать сообщения:    

Текущее время: Сегодня 06:04

Часовой пояс: GMT



Вы не можете начинать темы
Вы не можете отвечать на сообщения
Вы не можете редактировать свои сообщения
Вы не можете удалять свои сообщения
Вы не можете голосовать в опросах
Вы не можете прикреплять файлы к сообщениям
Вы не можете скачивать файлы