Viasat History: Частная жизнь Тюдоров / Private life of Tudors [серии 1-3 из 3] (Брюс Бюргесс / Bruce Burgess) [2016 г., Документально-постановчный, история, SATRip]

 
Автор Сообщение

skorpionN ®

Пол:

Стаж: 1 год 8 месяцев

Сообщений: 587



Награды: 4 (Подробнее)

Mega Seeder 1 (Количество: 1) Mega Seeder 3 (Количество: 1) Top Releaser 2 (Количество: 1)
Торрент-статистика

Создавать темы 21-Июл-2016 21:12

[Цитировать]

Viasat History: Частная жизнь Тюдоров / Private life of Tudors [серии 1-3 из 3]
Год выпуска: 2016
Страна: Великобритания, Like A Shot Entertainment
Жанр: Документально-постановчный, история
Продолжительность: 3x~00:44:01
Перевод: Профессиональный (одноголосый), переведено и озвучено на студии "SDI Media", перевод Ольги Юлдашевой, текст читает Виктория Бабанова
Режиссер: Брюс Бюргесс / Bruce Burgess
В ролях: Ведущая - Трэйси Борман / Tracy Borman
Описание: Многие слышали о Тюдорах, но кто, на самом деле, понимает и знает, какой была их жизнь? Трэйси Борман, эксперт по Тюдорам, исследует жизнь, страсти и скандалы одной из самых известных династий в истории Британии, от основателя Тюдоров - Генриха VII, чья красавица-жена Елизавета Йоркская забеременела во время брачной церемонии, до их неудержимого сына Генриха VIII, чья скандальная жизнь прогремела на всю Европу и разделила Англию на части. Главными героями передачи являются монархи, но не менее важной темой является личная жизнь их придворных. В центре внимания - двор, где секс и власть, отношение мужчин к женщинам да и сама архитектура создали атмосферу скандалов, разгоравшихся почти каждый день. Точная и атмосферная реконструкция помогают Трэйси вновь воссоздать то, что на самом деле происходило в залах, где Тюдоры и их придворные проводили свою жизнь.
Список серий:
01. Генрих VIII - Расцвет династии / Henry VIII - Rise of a Dynasty
Благодаря уникальному доступу к брачному ложе Генриха VII, мы подробнее узнаем о том, как проходила церемония зачатия у Тюдоров, а также о суровых реалиях рождения ребёнка в те времена.
02. Генрих VIII - Король-тиран / Henry VIII - The Tyrant King
Сегодня мы узнаем о временах правления Генриха VIII, чем питались придворные, какую роль сыграла медицина, а также правду о смерти Джейн Сеймур.
03. Елизавета I - Золотой век / Elizabeth I - The Golden Age
Неправильное использование ртути, повлекшее за собой смерть Эдуарда VI, необъяснимая беременность королевы Марии и гниющие зубы королевы Елизаветы - всё это реалии времён правления Генриха VIII.
Качество: SATRip
Формат: AVI
Видео кодек: XviD
Аудио кодек: AC3
Видео: 704x400 25fps 1800kbps
Аудио: AC3 2ch, 48kHz, 192 kbps

Скриншоты

MediaInfo:

Format : AVI
Format/Info : Audio Video Interleave
File size : 629 MiB
Duration : 44 min
Overall bit rate : 1 999 kb/s
Writing application : TMPGEnc Video Mastering Works 6 Trial with Movie Plug-in Version. 6.1.5.26
Writing library : TMPGEnc Video Mastering Works 6 Trial with Movie Plug-in Version. 6.1.5.26
Video
ID : 0
Format : MPEG-4 Visual
Format profile : Simple@L0
Format settings, BVOP : No
Format settings, QPel : No
Format settings, GMC : No warppoints
Format settings, Matrix : Default (H.263)
Codec ID : XVID
Codec ID/Hint : XviD
Duration : 44 min
Bit rate : 1 799 kb/s
Width : 704 pixels
Height : 400 pixels
Display aspect ratio : 16:9
Frame rate : 25.000 FPS
Color space : YUV
Chroma subsampling : 4:2:0
Bit depth : 8 bits
Scan type : Progressive
Compression mode : Lossy
Bits/(Pixel*Frame) : 0.256
Stream size : 566 MiB (90%)
Writing library : XviD 1.1.2 (UTC 2006-11-01)
Audio
ID : 1
Format : AC-3
Format/Info : Audio Coding 3
Mode extension : CM (complete main)
Format settings, Endianness : Big
Codec ID : 2000
Duration : 44 min
Bit rate mode : Constant
Bit rate : 192 kb/s
Channel(s) : 2 channels
Channel positions : Front: L R
Sampling rate : 48.0 kHz
Frame rate : 31.250 FPS (1536 spf)
Compression mode : Lossy
Stream size : 60.4 MiB (10%)
Alignment : Aligned on interleaves
Interleave, duration : 333 ms (8.34 video frames)

Внимание:

Раздача ведётся путём добавления новых серий; при каждом добавлении создаётся новый торрент. Чтобы начать докачку новой серии, пользователям необходимо сделать следующее:
- Остановить скачивание.
- Удалить старый торрент у себя из клиента (старые серии удалять не надо).
- Скачать новый торрент и запустить его у себя в клиенте вместо старого, при этом указать клиенту путь в старую папку куда и должно происходить скачивание новых серий.
Добавлено
03. Елизавета I - Золотой век / Elizabeth I - The Golden Age


Последний раз редактировалось: skorpionN (2016-07-23 09:27), всего редактировалось 1 раз
[Профиль] [ЛС]
Кто просматривает тему:

Форум Тема Автор Размер
Viasat History Viasat History: BBC: Железные дороги в годы Первой мировой войны / Michael Portillo's Railways of the Great War [серии 1-5 из 5] (Tom Richardson) [2014 г., Документальный, история, HDTVRip 720p] skorpionN 3.72 GB
Viasat History Viasat History: BBC: Отчаянные дегустаторы отправляются / The Supersizers Go... [1 сезон 7 (7) 2 сезон 6 (7)] (Tом Ковени, Нил Фергюсон) [2008-2009 г., Реалити-шоу, SATRip] skorpionN 10.72 GB
Viasat History Viasat History: Американские принцессы на миллион долларов / Million Dollar American Princesses [сезон 2 серии 1-3 из 4] (Ian Lilley) [2015 г., Документальный, игровой, биографический, история,... skorpionN 1.94 GB
Viasat History Viasat History: Ватикан и Третий Рейх / The Vatican and the Third Reich (Rufo Pajares) [2014 г., Документальный, история, SATRip] skorpionN 750 MB
Viasat History Viasat History: Величайшие секреты Библии / Secrets of the Bible [серии 1-13 из 13] (Tim Gaunt) [2015 г., Документально-постановочный, история, SATRip] skorpionN 9.07 GB
Viasat History Viasat History: Викинги / Vikings [серии 1-5 из 5] (Paul Russell and Andrea Vogt) [2014 г., Документально-постановочный, история, исследования, SATRip] skorpionN 3.15 GB
Viasat History Viasat History: Восточная Пруссия Гитлера / Hitler's East Prussia [серии 1-2 из 2] (Florian Huber) [2008 г., Документальный, история, SATRip] skorpionN 1.19 GB
Viasat History Viasat History: Гинденбург: Титаник небес / Hindenburg: Titanic of the Skies (Шон Гранди / Sean Grundy) [2007 г., Документально- постановочный, драма, SATRip] skorpionN 1.24 GB
Показать сообщения:    

Текущее время: Сегодня 16:23

Часовой пояс: GMT



Вы не можете начинать темы
Вы не можете отвечать на сообщения
Вы не можете редактировать свои сообщения
Вы не можете удалять свои сообщения
Вы не можете голосовать в опросах
Вы не можете прикреплять файлы к сообщениям
Вы не можете скачивать файлы