Viasat History: Тени средневековья / Medieval Dead [сезоны 1-6(6) 2-6(6)] (Джереми Фристон) [2013-14 г.], Документально-постановочный, история, археология, исследования, SATRip]

 
Автор Сообщение

skorpionN ®

Пол:

Стаж: 1 год 8 месяцев

Сообщений: 589



Награды: 4 (Подробнее)

Mega Seeder 1 (Количество: 1) Mega Seeder 3 (Количество: 1) Top Releaser 2 (Количество: 1)
Торрент-статистика

Создавать темы 09-Июн-2016 09:41

[Цитировать]

Viasat History: Тени средневековья / Medieval Dead [сезоны 1-6(6) 2-6(6)]
Год выпуска: 2013-2014
Страна: Великобритания, Like Shot Entertainment
Жанр: Документально-постановочный, история, археология, исследования
Продолжительность: 12х ~ 00:46:30
Перевод: Профессиональный (одноголосый), переведено и озвучено на студии "SDI Media", перевод Г. Максимова, текст читает Юрий Большаков
Режиссер: Джереми Фристон / Jeremy Freeston
Описание:
Сезон 1:
Если бы те, кто умер в средние века, могли говорить, о чем бы они нам рассказали? Они поведали бы о религиозных ритуалах, о чуме и о суровых временах, когда человеку приходилось бороться просто за то, чтобы выжить. Сегодня, спустя столетия после того, как они были преданы земле, средневековые тени мертвецов оживут на наших глазах. На основе научного анализа захороненных останков этот документальный сериал рассказывает подлинные истории средневековья. Убедительное игровое воссоздание захватывающих сцен плюс археологические открытия - благодаря этому сочетанию сериал "Тени средневековья" позволяет глубже, чем когда-либо, взглянуть на мир наших предков.
Список серий:
01. Потерянная часовня Ричарда III / Richard III's Lost Chapel
02. Последний рубеж / Last Stand At Visby
03. Забытые смерти Азинкура / Agincourt's Lost Dead
04. Защитники Мастербю / Defenders of Masterboy
05. Загадочная женщина из Тадкастера / The Mysterious Woman of Tadcaster
06. Мор и болезни / Pestilence and Disease

Сезон 2:
Во втором сезоне документального сериала “Тени средневековья” команда археологов снова отправляется в различные города и деревни в места захоронений и на поля сражений, чтобы попытаться пролить свет на историю средневековья. На этот раз ученые отправляются в Великобританию, Финляндию, Францию и Португалию. Используя научный анализ захороненных останков, команда археологов попытается
представить, какой была жизнь в средние века.
Список серий:
01. Воин Янаккала / The Warrior of Janakkala
Команда археологов отправляется в Финляндию в места захоронений, где был найдет скелет средневекового воина.
02. Крепость Монсегюр / The Fortress of Montesegur
Команда археологов отправляется во Францию, чтобы понять, что же на самом деле произошло во время захвата крепости Монсегюр, что
привело к гибели сотни катар.
03. Рыцарь из Сент Биса / The Knight of Saint Bees
Археологи расскажут удивительную историю о камберлендском рыцаре, останки которого были покрыты пчелиным воском и остались нетронуты временем, несмотря на то, что он умер в 1368 году.
04. Скелет Льюисе / The Skeleton of Lewes
Команда археологов отправляется в Льюис в графстве Суссекс, чтобы исследовать средневековые останки, которые были там обнаружены.
05. Битва при Алжубарроте / Battle at Aljubarrota
Команда археологов делает несколько удивительных открытий о битве 1385 года между португальскими и кастильскими войсками.
06. Братство при Азенкуре / Agincourt Band of Brothers
Команда археологов исследует могилы английских рыцарей, которые вернулись с битвы при Азенкуре и затем помогли укрепить власть Плантагенетов.
Качество: SATRip
Формат: AVI
Видео кодек: XviD
Аудио кодек: AC3
Видео: 720x400 (c1), 704x400 (c2), 25fps 1900kbps
Аудио: AC-3, 2 ch, 48 KHz, 192 Kbps

Скриншоты


MediaInfo:

Сезон 1:
Format : AVI
Format/Info : Audio Video Interleave
File size : 699 MiB
Duration : 46mn 28s
Overall bit rate : 2 102 Kbps
Writing application : VirtualDubMod 1.5.10.3 | www.virtualdub-fr.org || (build 2550/release)
Writing library : VirtualDubMod build 2550/release
Video
ID : 0
Format : MPEG-4 Visual
Format profile : Advanced Simple@L5
Format settings, BVOP : 2
Format settings, QPel : No
Format settings, GMC : No warppoints
Format settings, Matrix : Default (H.263)
Codec ID : XVID
Codec ID/Hint : XviD
Duration : 46mn 28s
Bit rate : 1 900 Kbps
Width : 720 pixels
Height : 400 pixels
Display aspect ratio : 16:9
Frame rate : 25.000 fps
Color space : YUV
Chroma subsampling : 4:2:0
Bit depth : 8 bits
Scan type : Progressive
Compression mode : Lossy
Bits/(Pixel*Frame) : 0.264
Stream size : 632 MiB (90%)
Writing library : XviD 1.2.1 (UTC 2008-12-04)
Audio
ID : 1
Format : AC-3
Format/Info : Audio Coding 3
Mode extension : CM (complete main)
Format settings, Endianness : Big
Codec ID : 2000
Duration : 46mn 28s
Bit rate mode : Constant
Bit rate : 192 Kbps
Channel(s) : 2 channels
Channel positions : Front: L R
Sampling rate : 48.0 KHz
Compression mode : Lossy
Stream size : 63.8 MiB (9%)
Alignment : Split accross interleaves
Interleave, duration : 40 ms (1.00 video frame)
Interleave, preload duration : 500 ms
Сезон 2:
Format : AVI
Format/Info : Audio Video Interleave
File size : 668 MiB
Duration : 44mn 25s
Overall bit rate : 2 102 Kbps
Writing application : VirtualDubMod 1.5.10.3 | www.virtualdub-fr.org || (build 2550/release)
Writing library : VirtualDubMod build 2550/release
Video
ID : 0
Format : MPEG-4 Visual
Format profile : Advanced Simple@L5
Format settings, BVOP : 2
Format settings, QPel : No
Format settings, GMC : No warppoints
Format settings, Matrix : Default (H.263)
Codec ID : XVID
Codec ID/Hint : XviD
Duration : 44mn 25s
Bit rate : 1 900 Kbps
Width : 704 pixels
Height : 400 pixels
Display aspect ratio : 16:9
Frame rate : 25.000 fps
Color space : YUV
Chroma subsampling : 4:2:0
Bit depth : 8 bits
Scan type : Progressive
Compression mode : Lossy
Bits/(Pixel*Frame) : 0.270
Stream size : 604 MiB (90%)
Writing library : XviD 1.2.1 (UTC 2008-12-04)
Audio
ID : 1
Format : AC-3
Format/Info : Audio Coding 3
Mode extension : CM (complete main)
Format settings, Endianness : Big
Codec ID : 2000
Duration : 44mn 25s
Bit rate mode : Constant
Bit rate : 192 Kbps
Channel(s) : 2 channels
Channel positions : Front: L R
Sampling rate : 48.0 KHz
Compression mode : Lossy
Stream size : 61.0 MiB (9%)
Alignment : Split accross interleaves
Interleave, duration : 40 ms (1.00 video frame)
Interleave, preload duration : 500 ms

Внимание:

Раздача ведётся путём добавления новых серий; при каждом добавлении создаётся новый торрент. Чтобы начать докачку новой серии, пользователям необходимо сделать следующее:
- Остановить скачивание.
- Удалить старый торрент у себя из клиента (старые серии удалять не надо).
- Скачать новый торрент и запустить его у себя в клиенте вместо старого, при этом указать клиенту путь в старую папку куда и должно происходить скачивание новых серий.
Добавлено
Сезон 2:
04. Скелет Льюисе / The Skeleton of Lewes
[Профиль] [ЛС]

skorpionN ®

Пол:

Стаж: 1 год 8 месяцев

Сообщений: 589



Награды: 4 (Подробнее)

Mega Seeder 1 (Количество: 1) Top Releaser 2 (Количество: 1) Mega Seeder 3 (Количество: 1)
Торрент-статистика

Создавать темы 14-Июл-2016 12:25 (спустя 1 месяц 5 дней)

[Цитировать]

Сезон окончен
[Профиль] [ЛС]
Кто просматривает тему:

Форум Тема Автор Размер
Viasat History Viasat History: BBC: Железные дороги в годы Первой мировой войны / Michael Portillo's Railways of the Great War [серии 1-5 из 5] (Tom Richardson) [2014 г., Документальный, история, HDTVRip 720p] skorpionN 3.72 GB
Viasat History Viasat History: BBC: Отчаянные дегустаторы отправляются / The Supersizers Go... [1 сезон 7 (7) 2 сезон 6 (7)] (Tом Ковени, Нил Фергюсон) [2008-2009 г., Реалити-шоу, SATRip] skorpionN 10.72 GB
Viasat History Viasat History: Американские принцессы на миллион долларов / Million Dollar American Princesses [сезон 2 серии 1-3 из 4] (Ian Lilley) [2015 г., Документальный, игровой, биографический, история,... skorpionN 1.94 GB
Viasat History Viasat History: Ватикан и Третий Рейх / The Vatican and the Third Reich (Rufo Pajares) [2014 г., Документальный, история, SATRip] skorpionN 750 MB
Viasat History Viasat History: Величайшие секреты Библии / Secrets of the Bible [серии 1-13 из 13] (Tim Gaunt) [2015 г., Документально-постановочный, история, SATRip] skorpionN 9.07 GB
Viasat History Viasat History: Викинги / Vikings [серии 1-5 из 5] (Paul Russell and Andrea Vogt) [2014 г., Документально-постановочный, история, исследования, SATRip] skorpionN 3.15 GB
Viasat History Viasat History: Восточная Пруссия Гитлера / Hitler's East Prussia [серии 1-2 из 2] (Florian Huber) [2008 г., Документальный, история, SATRip] skorpionN 1.19 GB
Viasat History Viasat History: Гинденбург: Титаник небес / Hindenburg: Titanic of the Skies (Шон Гранди / Sean Grundy) [2007 г., Документально- постановочный, драма, SATRip] skorpionN 1.24 GB
Показать сообщения:    

Текущее время: Сегодня 10:52

Часовой пояс: GMT



Вы не можете начинать темы
Вы не можете отвечать на сообщения
Вы не можете редактировать свои сообщения
Вы не можете удалять свои сообщения
Вы не можете голосовать в опросах
Вы не можете прикреплять файлы к сообщениям
Вы не можете скачивать файлы