Viasat History: Тайные общества / Secret Societies [s01] (2013) HDTVRip 720p

 
Автор Сообщение

sergej644 ®

Пол:

Стаж: 4 года 11 месяцев

Сообщений: 6040

Откуда: Soviet Union



Награды: Нет

Торрент-статистика

Создавать темы 09-Ноя-2014 17:30

[Цитировать]

Информация о фильме
Название: Viasat History: Тайные общества
Оригинальное название: Secret Societies
Год выхода: 2013
Жанр: Документальный, история, расследования
Режиссер: Кай Сиринг / Kay Siering, Йенс Николай / Jens Nicolai
В ролях: Мариан Фюссел
О фильме:
Они скрываются от глаз обывателя, они крайне осторожны и у них много тайн и секретов. Все они члены различных секретных организаций: масоны, розенкрейцеры, тамплиеры и иллюминаты. Как правило, их участники тщательно скрывают свое членство, цели и секретные церемонии. Такая таинственность приводит к тому, что про эти сообщества складываются невероятные мифы и легенды. Зачастую их обвиняют в том, что они стремятся к всемирному господству. Профессор Мариан Фюссел попытается раскрыть секреты самых известных тайных обществ.
Список серий:
01. Наследники тамплиеров / The Heirs of the Knights Templar
Профессор Мариан Фюссел исследует исторические корни масонства, которые, как он считает, берут свои истоки у тамплиеров.
02. Шифр Иллюминатов / The Code of the Illuminati
Профессор Мариан Фюссел попытается узнать больше об ордене Иллюминатов, а также о других тайных обществах, которые берут свое начало в античности.
03. Маски заговорщиков / The Masks of the Conspirators
Профессор Мариан Фюссел попытается раскрыть самые известные теории заговора современности, и ответить на вопросы, на которые так и не были найдены ответы

Страна: Германия
Студия: ZDF Enterprises
Продолжительность: 00:53:22 + 00:48:40 + 00:49:35
Перевод: Профессиональный (одноголосый закадровый)
Файл
Кодек: H.264
Качество: HDTVRip 720p
Видео: 1280х720 25.00 fps, 2775 kbps
Звук: AC3 2ch, 48kHz, 192 kbps

MediaInfo

Format : Matroska
Format version : Version 4 / Version 2
File size : 1.13 GiB
Duration : 53mn 22s
Overall bit rate : 3 027 Kbps
Encoded date : UTC 2014-10-17 21:13:02
Writing application : mkvmerge v7.2.0 ('On Every Street') 64bit built on Sep 13 2014 15:52:10
Writing library : libebml v1.3.0 + libmatroska v1.4.1
DURATION : 00:53:22.240000000
NUMBER_OF_FRAMES : 100070
NUMBER_OF_BYTES : 76853760
_STATISTICS_WRITING_APP : mkvmerge v7.2.0 ('On Every Street') 64bit built on Sep 13 2014 15:52:10
_STATISTICS_WRITING_DATE_UTC : 2014-10-17 21:13:02
_STATISTICS_TAGS : BPS DURATION NUMBER_OF_FRAMES NUMBER_OF_BYTES
Video
ID : 1
Format : AVC
Format/Info : Advanced Video Codec
Format profile : High@L4.1
Format settings, CABAC : Yes
Format settings, ReFrames : 5 frames
Codec ID : V_MPEG4/ISO/AVC
Duration : 53mn 22s
Bit rate : 2 775 Kbps
Width : 1 280 pixels
Height : 720 pixels
Display aspect ratio : 16:9
Frame rate mode : Constant
Frame rate : 25.000 fps
Color space : YUV
Chroma subsampling : 4:2:0
Bit depth : 8 bits
Scan type : Progressive
Bits/(Pixel*Frame) : 0.120
Stream size : 1.03 GiB (92%)
Writing library : x264 core 142 r2479 dd79a61
Encoding settings : cabac=1 / ref=5 / deblock=1:-2:-1 / analyse=0x3:0x113 / me=umh / subme=9 / psy=1 / psy_rd=1.00:0.00 / mixed_ref=1 / me_range=16 / chroma_me=1 / trellis=1 / 8x8dct=1 / cqm=0 / deadzone=21,11 / fast_pskip=1 / chroma_qp_offset=-2 / threads=12 / lookahead_threads=1 / sliced_threads=0 / nr=0 / decimate=1 / interlaced=0 / bluray_compat=0 / constrained_intra=0 / bframes=16 / b_pyramid=2 / b_adapt=1 / b_bias=0 / direct=1 / weightb=1 / open_gop=0 / weightp=2 / keyint=250 / keyint_min=23 / scenecut=40 / intra_refresh=0 / rc_lookahead=40 / rc=crf / mbtree=1 / crf=20.0 / qcomp=0.60 / qpmin=0 / qpmax=69 / qpstep=4 / ip_ratio=1.40 / aq=1:1.00
Language : English
Default : Yes
Forced : No
DURATION : 00:53:22.240000000
NUMBER_OF_FRAMES : 80056
NUMBER_OF_BYTES : 1134217882
_STATISTICS_WRITING_APP : mkvmerge v7.2.0 ('On Every Street') 64bit built on Sep 13 2014 15:52:10
_STATISTICS_WRITING_DATE_UTC : 2014-10-17 21:13:02
_STATISTICS_TAGS : BPS DURATION NUMBER_OF_FRAMES NUMBER_OF_BYTES
Audio
ID : 2
Format : AC-3
Format/Info : Audio Coding 3
Mode extension : CM (complete main)
Format settings, Endianness : Big
Codec ID : A_AC3
Duration : 53mn 22s
Bit rate mode : Constant
Bit rate : 192 Kbps
Channel(s) : 2 channels
Channel positions : Front: L R
Sampling rate : 48.0 KHz
Bit depth : 16 bits
Compression mode : Lossy
Stream size : 73.3 MiB (6%)
Default : Yes
Forced : No

Скриншоты

Релиз от: --
[Профиль] [ЛС]
Кто просматривает тему:

Форум Тема Автор Размер
Viasat History Viasat History: BBC: Железные дороги в годы Первой мировой войны / Michael Portillo's Railways of the Great War [серии 1-5 из 5] (Tom Richardson) [2014 г., Документальный, история, HDTVRip 720p] skorpionN 3.72 GB
Viasat History Viasat History: BBC: Отчаянные дегустаторы отправляются / The Supersizers Go... [1 сезон 7 (7) 2 сезон 6 (7)] (Tом Ковени, Нил Фергюсон) [2008-2009 г., Реалити-шоу, SATRip] skorpionN 10.72 GB
Viasat History Viasat History: Американские принцессы на миллион долларов / Million Dollar American Princesses [сезон 2 серии 1-3 из 4] (Ian Lilley) [2015 г., Документальный, игровой, биографический, история,... skorpionN 1.94 GB
Viasat History Viasat History: Ватикан и Третий Рейх / The Vatican and the Third Reich (Rufo Pajares) [2014 г., Документальный, история, SATRip] skorpionN 750 MB
Viasat History Viasat History: Величайшие секреты Библии / Secrets of the Bible [серии 1-13 из 13] (Tim Gaunt) [2015 г., Документально-постановочный, история, SATRip] skorpionN 9.07 GB
Viasat History Viasat History: Викинги / Vikings [серии 1-5 из 5] (Paul Russell and Andrea Vogt) [2014 г., Документально-постановочный, история, исследования, SATRip] skorpionN 3.15 GB
Viasat History Viasat History: Восточная Пруссия Гитлера / Hitler's East Prussia [серии 1-2 из 2] (Florian Huber) [2008 г., Документальный, история, SATRip] skorpionN 1.19 GB
Viasat History Viasat History: Гинденбург: Титаник небес / Hindenburg: Titanic of the Skies (Шон Гранди / Sean Grundy) [2007 г., Документально- постановочный, драма, SATRip] skorpionN 1.24 GB
Показать сообщения:    

Текущее время: Сегодня 04:45

Часовой пояс: GMT



Вы не можете начинать темы
Вы не можете отвечать на сообщения
Вы не можете редактировать свои сообщения
Вы не можете удалять свои сообщения
Вы не можете голосовать в опросах
Вы не можете прикреплять файлы к сообщениям
Вы не можете скачивать файлы