Viasat History: Строители замков / The Castle Builders [сезон 1 серии 1-3 из 3] (John Geraint) [2015 г., Документальный, история, архитектура, SATRip]

 
Автор Сообщение

skorpionN ®

Пол:

Стаж: 1 год 8 месяцев

Сообщений: 587



Награды: 4 (Подробнее)

Mega Seeder 3 (Количество: 1) Mega Seeder 1 (Количество: 1) Mega Seeder 2 (Количество: 1)
Торрент-статистика

Создавать темы 26-Ноя-2015 11:20

[Цитировать]

Viasat History: Строители замков / The Castle Builders [сезон 1 серии 1-3 из 3]
Год выпуска: 2015
Страна: Великобритания, Green Bay Media
Жанр: Документальный, история, архитектура
Продолжительность: 3x~00:48:29
Перевод: Профессиональный (одноголосый), переведено и озвучено на студии "SDI Media", перевод Т. Вишневской, текст читает Роман Антанович
Режиссер: John Geraint
Описание: Замки не только являлись домами и крепостями, но также были настоящими шедеврами архитектуры. Сегодня они являются памятниками истории и помогают нам лучше понять, каким образом развивалась наша цивилизация. Программа рассказывает о том, как создавались самые известные в Европе замки, и как со временем изменились технологии их строительства. Мы также узнаем о том, каким образом их защищали от нападения врага, и как постепенно эти неприступные крепости стали олицетворять роскошь и величие.
Список серий:
01. Мастера и каменщики / Master and Masons
В этой серии мы узнаем, как были построены одни из самых монументальных замков в Европе, а также как со временем изменились технологии их строительства.
02. Осады и приступы / Siege and Storm
В этой серии рассказывается о том, как была устроена защита средневекового замка.

03. Сказочное убранство / Dreams and Decoration

В этой серии рассказывается о том, как со временем изменилась основная функция замков, и как постепенно эти неприступные крепости стали олицетворять роскошь и величие.
Качество: SATRip
Формат: AVI
Видео кодек: XviD
Аудио кодек: AC3
Видео: 704x400 25fps 1800 kbps
Аудио: AC3 2ch, 48kHz, 192 kbps

MediaInfo:

Format : AVI
Format/Info : Audio Video Interleave
File size : 691 MiB
Duration : 48mn 29s
Overall bit rate : 1 993 Kbps
Writing application : TMPGEnc Video Mastering Works 5 Version. 5.0.6.38
Writing library : TMPGEnc Video Mastering Works 5 Version. 5.0.6.38
Video
ID : 0
Format : MPEG-4 Visual
Format profile : Advanced Simple@L5
Format settings, BVOP : 2
Format settings, QPel : No
Format settings, GMC : No warppoints
Format settings, Matrix : Default (H.263)
Muxing mode : Packed bitstream
Codec ID : XVID
Codec ID/Hint : XviD
Duration : 48mn 29s
Bit rate : 1 794 Kbps
Width : 704 pixels
Height : 400 pixels
Display aspect ratio : 16:9
Frame rate : 25.000 fps
Color space : YUV
Chroma subsampling : 4:2:0
Bit depth : 8 bits
Scan type : Progressive
Compression mode : Lossy
Bits/(Pixel*Frame) : 0.255
Stream size : 622 MiB (90%)
Writing library : XviD 73
Audio
ID : 1
Format : AC-3
Format/Info : Audio Coding 3
Mode extension : CM (complete main)
Format settings, Endianness : Big
Codec ID : 2000
Duration : 48mn 28s
Bit rate mode : Constant
Bit rate : 192 Kbps
Channel(s) : 2 channels
Channel positions : Front: L R
Sampling rate : 48.0 KHz
Bit depth : 16 bits
Compression mode : Lossy
Stream size : 66.6 MiB (10%)
Alignment : Aligned on interleaves
Interleave, duration : 240 ms (6.00 video frames)
Interleave, preload duration : 224 ms

Внимание:

Раздача ведётся путём добавления новых серий; при каждом добавлении создаётся новый торрент. Чтобы начать докачку новой серии, пользователям необходимо сделать следующее:
- Остановить скачивание.
- Удалить старый торрент у себя из клиента (старые серии удалять не надо).
- Скачать новый торрент и запустить его у себя в клиенте вместо старого, при этом указать клиенту путь в старую папку куда и должно происходить скачивание новых серий.
Добавлено
03. Сказочное убранство / Dreams and Decoration


Последний раз редактировалось: skorpionN (2015-12-28 12:46), всего редактировалось 1 раз
[Профиль] [ЛС]

skorpionN ®

Пол:

Стаж: 1 год 8 месяцев

Сообщений: 587



Награды: 4 (Подробнее)

Mega Seeder 1 (Количество: 1) Mega Seeder 2 (Количество: 1) Mega Seeder 3 (Количество: 1)
Торрент-статистика

Создавать темы 14-Дек-2015 14:29 (спустя 18 дней)

[Цитировать]

Сезон окончен
[Профиль] [ЛС]
Кто просматривает тему:

Форум Тема Автор Размер
Viasat History Viasat History: BBC: Железные дороги в годы Первой мировой войны / Michael Portillo's Railways of the Great War [серии 1-5 из 5] (Tom Richardson) [2014 г., Документальный, история, HDTVRip 720p] skorpionN 3.72 GB
Viasat History Viasat History: BBC: Отчаянные дегустаторы отправляются / The Supersizers Go... [1 сезон 7 (7) 2 сезон 6 (7)] (Tом Ковени, Нил Фергюсон) [2008-2009 г., Реалити-шоу, SATRip] skorpionN 10.72 GB
Viasat History Viasat History: Американские принцессы на миллион долларов / Million Dollar American Princesses [сезон 2 серии 1-3 из 4] (Ian Lilley) [2015 г., Документальный, игровой, биографический, история,... skorpionN 1.94 GB
Viasat History Viasat History: Ватикан и Третий Рейх / The Vatican and the Third Reich (Rufo Pajares) [2014 г., Документальный, история, SATRip] skorpionN 750 MB
Viasat History Viasat History: Величайшие секреты Библии / Secrets of the Bible [серии 1-13 из 13] (Tim Gaunt) [2015 г., Документально-постановочный, история, SATRip] skorpionN 9.07 GB
Viasat History Viasat History: Викинги / Vikings [серии 1-5 из 5] (Paul Russell and Andrea Vogt) [2014 г., Документально-постановочный, история, исследования, SATRip] skorpionN 3.15 GB
Viasat History Viasat History: Восточная Пруссия Гитлера / Hitler's East Prussia [серии 1-2 из 2] (Florian Huber) [2008 г., Документальный, история, SATRip] skorpionN 1.19 GB
Viasat History Viasat History: Гинденбург: Титаник небес / Hindenburg: Titanic of the Skies (Шон Гранди / Sean Grundy) [2007 г., Документально- постановочный, драма, SATRip] skorpionN 1.24 GB
Показать сообщения:    

Текущее время: Сегодня 14:28

Часовой пояс: GMT



Вы не можете начинать темы
Вы не можете отвечать на сообщения
Вы не можете редактировать свои сообщения
Вы не можете удалять свои сообщения
Вы не можете голосовать в опросах
Вы не можете прикреплять файлы к сообщениям
Вы не можете скачивать файлы