Viasat History: Сокровища Эрмитажа (Открывая Эрмитаж) / Hermitage Revealed (Margy Kinmonth) [2014 г., Документальный, история, искусство, SATRip]

 
Автор Сообщение

skorpionN ®

Пол:

Стаж: 1 год 8 месяцев

Сообщений: 591



Награды: 4 (Подробнее)

Mega Seeder 3 (Количество: 1) Top Releaser 2 (Количество: 1) Mega Seeder 1 (Количество: 1)
Торрент-статистика

Создавать темы 26-Дек-2015 08:29

[Цитировать]

Viasat History: Сокровища Эрмитажа (Открывая Эрмитаж) / Hermitage Revealed
Год выпуска: 2014
Страна: Великобритания, США, Нидерланды, Россия, Foxtrot Films Production
Жанр: Документальный, история, искусство
Продолжительность: 01:22:55
Перевод: Профессиональный (одноголосый), переведено и озвучено на студии "SDI Media", перевод Геннадия Максимова, текст читает Виктория Бабанова
Режиссер: Margy Kinmonth
Описание: Государственный музей Эрмитаж, который находится в Санкт-Петербурге, является одним из самых крупнейших и самых старинных музеев мира. В нём находятся более трёх миллионов сокровищ культуры, а также он может похвастаться таким количеством кураторов, которое не снилось ни одному художественному учреждению. В этом документальном фильме вы увидите историю преобразования дворцового флигеля, который впоследствии стал городским музеем, а также специальные коллекции и закрытые от публики помещения. Список сокровищ Эрмитажа можно продолжать бесконечно: это картины Рембрандта, шедевры русских художников, доисторические артефакты, личная коллекция Екатерины Великой, произведения Микеланджело и Матисса.
Качество: SATRip
Формат: AVI
Видео кодек: XviD
Аудио кодек: AC3
Видео: 704x400 25fps 1800 kbps
Аудио: AC3 2ch, 48kHz, 192 kbps

Скриншоты


MediaInfo:

Format : AVI
Format/Info : Audio Video Interleave
File size : 1.16 GiB
Duration : 1h 22mn
Overall bit rate : 1 999 Kbps
Writing application : TMPGEnc Video Mastering Works 5 Version. 5.0.6.38
Writing library : TMPGEnc Video Mastering Works 5 Version. 5.0.6.38
Video
ID : 0
Format : MPEG-4 Visual
Format profile : Advanced Simple@L5
Format settings, BVOP : 2
Format settings, QPel : No
Format settings, GMC : No warppoints
Format settings, Matrix : Default (H.263)
Muxing mode : Packed bitstream
Codec ID : XVID
Codec ID/Hint : XviD
Duration : 1h 22mn
Bit rate : 1 799 Kbps
Width : 704 pixels
Height : 400 pixels
Display aspect ratio : 16:9
Frame rate : 25.000 fps
Color space : YUV
Chroma subsampling : 4:2:0
Bit depth : 8 bits
Scan type : Progressive
Compression mode : Lossy
Bits/(Pixel*Frame) : 0.256
Stream size : 1.04 GiB (90%)
Writing library : XviD 73
Audio
ID : 1
Format : AC-3
Format/Info : Audio Coding 3
Mode extension : CM (complete main)
Format settings, Endianness : Big
Codec ID : 2000
Duration : 1h 22mn
Bit rate mode : Constant
Bit rate : 192 Kbps
Channel(s) : 2 channels
Channel positions : Front: L R
Sampling rate : 48.0 KHz
Bit depth : 16 bits
Compression mode : Lossy
Stream size : 114 MiB (10%)
Alignment : Aligned on interleaves
Interleave, duration : 240 ms (6.00 video frames)
Interleave, preload duration : 224 ms
[Профиль] [ЛС]

Создавать темы 28-Мар-2016 11:21 (спустя 3 месяца 2 дня)

Топик был перенесен из форума Культура и искусство в форум Viasat History
Russian Mafia
 
Кто просматривает тему:

Форум Тема Автор Размер
Viasat History Viasat History: BBC: Железные дороги в годы Первой мировой войны / Michael Portillo's Railways of the Great War [серии 1-5 из 5] (Tom Richardson) [2014 г., Документальный, история, HDTVRip 720p] skorpionN 3.72 GB
Viasat History Viasat History: BBC: Отчаянные дегустаторы отправляются / The Supersizers Go... [1 сезон 7 (7) 2 сезон 6 (7)] (Tом Ковени, Нил Фергюсон) [2008-2009 г., Реалити-шоу, SATRip] skorpionN 10.72 GB
Viasat History Viasat History: Американские принцессы на миллион долларов / Million Dollar American Princesses [сезон 2 серии 1-4 из 4] (Ian Lilley) [2015 г., Документальный, игровой, биографический, история,... skorpionN 2.58 GB
Viasat History Viasat History: Ватикан и Третий Рейх / The Vatican and the Third Reich (Rufo Pajares) [2014 г., Документальный, история, SATRip] skorpionN 750 MB
Viasat History Viasat History: Величайшие секреты Библии / Secrets of the Bible [серии 1-13 из 13] (Tim Gaunt) [2015 г., Документально-постановочный, история, SATRip] skorpionN 9.07 GB
Viasat History Viasat History: Викинги / Vikings [серии 1-5 из 5] (Paul Russell and Andrea Vogt) [2014 г., Документально-постановочный, история, исследования, SATRip] skorpionN 3.15 GB
Viasat History Viasat History: Восточная Пруссия Гитлера / Hitler's East Prussia [серии 1-2 из 2] (Florian Huber) [2008 г., Документальный, история, SATRip] skorpionN 1.19 GB
Viasat History Viasat History: Гинденбург: Титаник небес / Hindenburg: Titanic of the Skies (Шон Гранди / Sean Grundy) [2007 г., Документально- постановочный, драма, SATRip] skorpionN 1.24 GB
Показать сообщения:    

Текущее время: Сегодня 09:05

Часовой пояс: GMT



Вы не можете начинать темы
Вы не можете отвечать на сообщения
Вы не можете редактировать свои сообщения
Вы не можете удалять свои сообщения
Вы не можете голосовать в опросах
Вы не можете прикреплять файлы к сообщениям
Вы не можете скачивать файлы