Viasat History: Расцвет древних цивилизаций / The Ascent of Civilisation [серии 1-3 из 3] (Cristina Trebbi) [2014 г., Документально-постановочный, история, SATRip]

 
Автор Сообщение

skorpionN ®

Пол:

Стаж: 1 год 8 месяцев

Сообщений: 578



Награды: 4 (Подробнее)

Top Releaser 2 (Количество: 1) Mega Seeder 3 (Количество: 1) Mega Seeder 1 (Количество: 1)
Торрент-статистика

Создавать темы 11-Авг-2015 20:12

[Цитировать]

Viasat History: Расцвет древних цивилизаций / The Ascent of Civilisation [серии 1-3 из 3]
Год выпуска: 2014
Страна: Германия, Gruppe 5 Filmproduktion for ZDF Enterprises
Жанр: Документально-постановочный, история
Продолжительность: 3x~00:50:16
Перевод: Профессиональный (одноголосый), переведено и озвучено на студии "SDI Media", перевод Анны Заславской, текст читает Юрий Большаков
Режиссер: Cristina Trebbi
Описание: Какими на самом деле были викинги? Чего достигли римляне? И как повлияли достижения греков на современный мир? Программа развенчивает мифы и стереотипы о викингах, а также о таких древних цивилизациях, как греческая и римская. Программа поможет по-новому взглянуть на эти выдающиеся культуры и, возможно, изменит наше представление о них.
Список серий:
01. Как греки изменили мир / How the Greeks Changed the World
Древняя Греция - колыбель современной Европы. Около 3000 лет назад здесь, на берегах Средиземного моря, были заложены основы культуры западной цивилизации . Это родина демократии, где великие мыслители создавали начала научного мышления, где театр был превращен в массовые развлечения, и где начались Олимпийские игры. В этой серии у нас появится возможность по-новому взглянуть на древнюю Грецию и понять, каким образом достижения этой выдающейся цивилизации повлияли на современное западное общество.
02. Как римляне изменили мир / How the Romans Changed the World
Римляне создали одну из самых больших империй в истории, построенную с помощью могущественной армии из профессиональных легионеров и хорошо отлаженной политической машины. На вершине империи несколько сотен человек управляли пятой часть человечества и территорийе, простирающейся от Великобритании в Сирию и от Гибралтара до Евфрата. Они осуществили многие из самых амбициозных строительных проектов своего времени: бесконечные дороги, мосты и гигантские внушительные акведуки, образовав сложную инфраструктуру и оставили неизгладимое наследие. Этот фильм - откровение и уникальное путешествие в мир Древнего Рима.
03. Как викинги изменил мир / How the Vikings Changed the World
Нация моряков и купцов, викинги произвели революцию в торговли в средние века и открыли Америку за 500 лет до Колумба. Это захватывающий фильм развенчивает плохую репутацию скандинавов как диких, жестоких убийц и грабителей и показывает поразительно толерантных людей со сложной торговой сетью, которая простиралась через всю Европу. Мы увидим их как лучших моряков своего времени, смелых, исследователей и экспертов, толерантных торговцев, они установили новые стандарты и оставил свой след во всем мире.
Качество: SATRip
Формат: AVI
Видео кодек: XviD
Аудио кодек: AC3
Видео: 720x400 25fps 1800kbps
Аудио: AC3, 2 ch, 192kbps

Скриншоты


MediaInfo:

Format : AVI
Format/Info : Audio Video Interleave
File size : 718 MiB
Duration : 50mn 15s
Overall bit rate : 1 996 Kbps
Writing application : TMPGEnc Video Mastering Works 5 Version. 5.0.6.38
Writing library : TMPGEnc Video Mastering Works 5 Version. 5.0.6.38
Video
ID : 0
Format : MPEG-4 Visual
Format profile : Advanced Simple@L5
Format settings, BVOP : 2
Format settings, QPel : No
Format settings, GMC : No warppoints
Format settings, Matrix : Default (H.263)
Muxing mode : Packed bitstream
Codec ID : XVID
Codec ID/Hint : XviD
Duration : 50mn 15s
Bit rate : 1 797 Kbps
Width : 720 pixels
Height : 400 pixels
Display aspect ratio : 16:9
Frame rate : 25.000 fps
Color space : YUV
Chroma subsampling : 4:2:0
Bit depth : 8 bits
Scan type : Progressive
Compression mode : Lossy
Bits/(Pixel*Frame) : 0.250
Stream size : 646 MiB (90%)
Writing library : XviD 73
Audio
ID : 1
Format : AC-3
Format/Info : Audio Coding 3
Mode extension : CM (complete main)
Format settings, Endianness : Big
Codec ID : 2000
Duration : 50mn 15s
Bit rate mode : Constant
Bit rate : 192 Kbps
Channel(s) : 2 channels
Channel positions : Front: L R
Sampling rate : 48.0 KHz
Compression mode : Lossy
Stream size : 69.0 MiB (10%)
Alignment : Aligned on interleaves
Interleave, duration : 240 ms (6.00 video frames)
Interleave, preload duration : 224 ms

Внимание:

Раздача ведётся путём добавления новых серий; при каждом добавлении создаётся новый торрент. Чтобы начать докачку новой серии, пользователям необходимо сделать следующее:
- Остановить скачивание.
- Удалить старый торрент у себя из клиента (старые серии удалять не надо).
- Скачать новый торрент и запустить его у себя в клиенте вместо старого, при этом указать клиенту путь в старую папку куда и должно происходить скачивание новых серий.
Добавлено 03. Как викинги изменил мир / How the Vikings Changed the World


Последний раз редактировалось: skorpionN (2015-08-18 21:14), всего редактировалось 1 раз
[Профиль] [ЛС]
Кто просматривает тему:

Форум Тема Автор Размер
Viasat History Viasat History: BBC: Железные дороги в годы Первой мировой войны / Michael Portillo's Railways of the Great War [серии 1-5 из 5] (Tom Richardson) [2014 г., Документальный, история, HDTVRip 720p] skorpionN 3.72 GB
Viasat History Viasat History: BBC: Отчаянные дегустаторы отправляются / The Supersizers Go... [1 сезон 7 (7) 2 сезон 6 (7)] (Tом Ковени, Нил Фергюсон) [2008-2009 г., Реалити-шоу, SATRip] skorpionN 10.72 GB
Viasat History Viasat History: Американские принцессы на миллион долларов / Million Dollar American Princesses [сезон 2 серии 1-3 из 4] (Ian Lilley) [2015 г., Документальный, игровой, биографический, история,... skorpionN 1.94 GB
Viasat History Viasat History: Ватикан и Третий Рейх / The Vatican and the Third Reich (Rufo Pajares) [2014 г., Документальный, история, SATRip] skorpionN 750 MB
Viasat History Viasat History: Величайшие секреты Библии / Secrets of the Bible [серии 1-13 из 13] (Tim Gaunt) [2015 г., Документально-постановочный, история, SATRip] skorpionN 9.07 GB
Viasat History Viasat History: Викинги / Vikings [серии 1-5 из 5] (Paul Russell and Andrea Vogt) [2014 г., Документально-постановочный, история, исследования, SATRip] skorpionN 3.15 GB
Viasat History Viasat History: Восточная Пруссия Гитлера / Hitler's East Prussia [серии 1-2 из 2] (Florian Huber) [2008 г., Документальный, история, SATRip] skorpionN 1.19 GB
Viasat History Viasat History: Гинденбург: Титаник небес / Hindenburg: Titanic of the Skies (Шон Гранди / Sean Grundy) [2007 г., Документально- постановочный, драма, SATRip] skorpionN 1.24 GB
Показать сообщения:    

Текущее время: Сегодня 02:36

Часовой пояс: GMT



Вы не можете начинать темы
Вы не можете отвечать на сообщения
Вы не можете редактировать свои сообщения
Вы не можете удалять свои сообщения
Вы не можете голосовать в опросах
Вы не можете прикреплять файлы к сообщениям
Вы не можете скачивать файлы