Viasat History: Разоблаченные монументы (Великие памятники архитектуры) / Monuments revealed [сезон 1 серия 1-3 из 3] (Olivier Julien, Pascal Cuissot, Gary Glassman) [2014 г., Документальный, история, архитектура, SATRip]

 
Автор Сообщение

skorpionN ®

Пол:

Стаж: 1 год 8 месяцев

Сообщений: 591



Награды: 4 (Подробнее)

Top Releaser 2 (Количество: 1) Mega Seeder 3 (Количество: 1) Mega Seeder 2 (Количество: 1)
Торрент-статистика

Создавать темы 08-Май-2015 20:31

[Цитировать]

Viasat History: Разоблаченные монументы (Великие памятники архитектуры) / Monuments revealed [сезон 1-3 серия 1 из 3]
Год выпуска: 2014
Страна: Франция, ZED for ARTE FRANCE, NOVA/WGBH, PROVIDENCE PICTURES, CNRS IMAGES
Жанр: Документальный, история, архитектура
Продолжительность: 01:27:25+ 01:27:25+01:25:31
Перевод: Профессиональный (одноголосый), "SDI Media" перевод Геннадия Максимова, текст читает Роман Антанович
Режиссер: Olivier Julien, Pascal Cuissot, Gary Glassman
Описание: Зачастую памятники архитектуры – это все, что остается от великой цивилизации. Величие и идеальные формы этих уникальных сооружений поражают и по сей день. Они не просто своеобразное украшение города, но память о великих свершениях и достижениях, попытка бросить вызов времени и стать запечатлённым в вечности посредством красоты и совершенства. Эти уникальные здания несут в себе глубокий смысл. Сериал раскроет секреты самых удивительных архитектурных сооружений в мире, таких как Петра, Собор Святой Софии и Колизей, и расскажет об их высшем предназначении.
Список серий:
01. Собор Святой Софии / Agia Sophia
При помощи новейших технологий мы сможем увидеть всю красоту и величие Собора Святой Софии, который является символом «золотого века» Византии.
02. Петра. Столица пустыни/ Petra. Capital of the desert
Расположившись на высоте более 900 м над уровнем моря, Петра является одним из самых труднодоступных городов древности. Однако при помощи 3D технологий мы сможем увидеть его во всей красе.
03. Тайны Колизея / The Secrets of the Colosseum
При помощи уникального съемочного оборудования мы сможем увидеть одно из самых известных и грандиозных сооружений древнего мира – Колизей
Качество: SATRip
Формат: AVI
Видео кодек: XviD
Аудио кодек: AC3
Видео: 704x400 25fps 1800kbps
Аудио: AC3, 2 ch, 192kbps

Скриншоты


MediaInfo:

Format : AVI
Format/Info : Audio Video Interleave
File size : 1.22 GiB
Duration : 1h 27mn
Overall bit rate : 1 997 Kbps
Writing application : TMPGEnc Video Mastering Works 5 Version. 5.0.6.38
Writing library : TMPGEnc Video Mastering Works 5 Version. 5.0.6.38
Video
ID : 0
Format : MPEG-4 Visual
Format profile : Advanced Simple@L5
Format settings, BVOP : 2
Format settings, QPel : No
Format settings, GMC : No warppoints
Format settings, Matrix : Default (H.263)
Muxing mode : Packed bitstream
Codec ID : XVID
Codec ID/Hint : XviD
Duration : 1h 27mn
Bit rate : 1 798 Kbps
Width : 704 pixels
Height : 400 pixels
Display aspect ratio : 16:9
Frame rate : 25.000 fps
Color space : YUV
Chroma subsampling : 4:2:0
Bit depth : 8 bits
Scan type : Progressive
Compression mode : Lossy
Bits/(Pixel*Frame) : 0.255
Stream size : 1.10 GiB (90%)
Writing library : XviD 73
Audio
ID : 1
Format : AC-3
Format/Info : Audio Coding 3
Mode extension : CM (complete main)
Format settings, Endianness : Big
Codec ID : 2000
Duration : 1h 27mn
Bit rate mode : Constant
Bit rate : 192 Kbps
Channel(s) : 2 channels
Channel positions : Front: L R
Sampling rate : 48.0 KHz
Compression mode : Lossy
Stream size : 120 MiB (10%)
Alignment : Aligned on interleaves
Interleave, duration : 480 ms (12.00 video frames)
Добавлено 03. Тайны Колизея / The Secrets of the Colosseum


Последний раз редактировалось: skorpionN (2015-05-24 06:47), всего редактировалось 7 раз(а)
[Профиль] [ЛС]

Таисия

Стаж: 1 год 8 месяцев

Сообщений: 37



Награды: 1 (Подробнее)

Girls (Количество: 1)
Торрент-статистика

Создавать темы 10-Май-2015 18:09 (спустя 1 день 21 час)

[Цитировать]

КАЧАЕМ .....СУПЕР ....
[Профиль] [ЛС]
Кто просматривает тему:

Форум Тема Автор Размер
Viasat History Viasat History: BBC: Железные дороги в годы Первой мировой войны / Michael Portillo's Railways of the Great War [серии 1-5 из 5] (Tom Richardson) [2014 г., Документальный, история, HDTVRip 720p] skorpionN 3.72 GB
Viasat History Viasat History: BBC: Отчаянные дегустаторы отправляются / The Supersizers Go... [1 сезон 7 (7) 2 сезон 6 (7)] (Tом Ковени, Нил Фергюсон) [2008-2009 г., Реалити-шоу, SATRip] skorpionN 10.72 GB
Viasat History Viasat History: Американские принцессы на миллион долларов / Million Dollar American Princesses [сезон 2 серии 1-3 из 4] (Ian Lilley) [2015 г., Документальный, игровой, биографический, история,... skorpionN 1.94 GB
Viasat History Viasat History: Ватикан и Третий Рейх / The Vatican and the Third Reich (Rufo Pajares) [2014 г., Документальный, история, SATRip] skorpionN 750 MB
Viasat History Viasat History: Величайшие секреты Библии / Secrets of the Bible [серии 1-13 из 13] (Tim Gaunt) [2015 г., Документально-постановочный, история, SATRip] skorpionN 9.07 GB
Viasat History Viasat History: Викинги / Vikings [серии 1-5 из 5] (Paul Russell and Andrea Vogt) [2014 г., Документально-постановочный, история, исследования, SATRip] skorpionN 3.15 GB
Viasat History Viasat History: Восточная Пруссия Гитлера / Hitler's East Prussia [серии 1-2 из 2] (Florian Huber) [2008 г., Документальный, история, SATRip] skorpionN 1.19 GB
Viasat History Viasat History: Гинденбург: Титаник небес / Hindenburg: Titanic of the Skies (Шон Гранди / Sean Grundy) [2007 г., Документально- постановочный, драма, SATRip] skorpionN 1.24 GB
Показать сообщения:    

Текущее время: Сегодня 12:11

Часовой пояс: GMT



Вы не можете начинать темы
Вы не можете отвечать на сообщения
Вы не можете редактировать свои сообщения
Вы не можете удалять свои сообщения
Вы не можете голосовать в опросах
Вы не можете прикреплять файлы к сообщениям
Вы не можете скачивать файлы