Viasat History: О любви британцев к танцам / Dancing Cheek to Cheek: An Intimate History of Dance [серии 1-3 из 3] (Eleanor Scoones) [2014 г., Документальный, исследование, история, SATRip]

 
Автор Сообщение

skorpionN ®

Пол:

Стаж: 1 год 8 месяцев

Сообщений: 591



Награды: 4 (Подробнее)

Mega Seeder 1 (Количество: 1) Top Releaser 2 (Количество: 1) Mega Seeder 2 (Количество: 1)
Торрент-статистика

Создавать темы 12-Сен-2015 07:02

[Цитировать]

Viasat History: О любви британцев к танцам / Dancing Cheek to Cheek: An Intimate History of Dance [серии 1-3 из 3]
Год выпуска: 2014
Страна: Великобритания, Silver River for BBC
Жанр: Документальный, исследование, история
Продолжительность: 3x~00:59:04
Перевод: Профессиональный (двухголосый), переведено и озвучено на студии "SDI Media", перевод Н. Сергеевой, текст читают Виктория Бабанова и Герман Скуч
Режиссер: Eleanor Scoones
В ролях: Лен Гудмен / Len Goodman, Люси Уорсли / Lucy Worsley
Описание: Профессиональный танцор Лен Гудман и историк Люси Уорсли помогут нам понять, почему британцы так любят танцевать. Они расскажут об истории развития танца в Британии с XVII по XX век.
Список серий:
01. Дьявольские пляски / The Devil's Work?
Лен Гудман и Люси Уорсли расскажут о том, как танцы, которые считались плохим тоном в 17 веке, стали неотъемлемой частью социальной жизни в XVIII веке.
02. Революция на танцполе / Revolution on the Dance Floor
Лен Гудман и Люси Уорсли расскажут о том, как в начале XX века медленные и торжественные танцы сменились на быстрые и ритмичные.
03. Эпоха шокирующих перемен / The Shock of the New
Лен Гудман и Люси Уорсли расскажут о том, с какой скоростью изменились танцы в начале XX века.
Качество: SATRip
Формат: AVI
Видео кодек: XviD
Аудио кодек: AC3
Видео: 704x400 25fps 1800kbps
Аудио: AC3, 2 ch, 192kbps

MediaInfo:

Format : AVI
Format/Info : Audio Video Interleave
File size : 844 MiB
Duration : 59mn 3s
Overall bit rate : 1 997 Kbps
Writing application : TMPGEnc Video Mastering Works 5 Version. 5.0.6.38
Writing library : TMPGEnc Video Mastering Works 5 Version. 5.0.6.38
Video
ID : 0
Format : MPEG-4 Visual
Format profile : Advanced Simple@L5
Format settings, BVOP : 2
Format settings, QPel : No
Format settings, GMC : No warppoints
Format settings, Matrix : Default (H.263)
Muxing mode : Packed bitstream
Codec ID : XVID
Codec ID/Hint : XviD
Duration : 59mn 3s
Bit rate : 1 797 Kbps
Width : 704 pixels
Height : 400 pixels
Display aspect ratio : 16:9
Frame rate : 25.000 fps
Color space : YUV
Chroma subsampling : 4:2:0
Bit depth : 8 bits
Scan type : Progressive
Compression mode : Lossy
Bits/(Pixel*Frame) : 0.255
Stream size : 759 MiB (90%)
Writing library : XviD 73
Audio
ID : 1
Format : AC-3
Format/Info : Audio Coding 3
Mode extension : CM (complete main)
Format settings, Endianness : Big
Codec ID : 2000
Duration : 59mn 3s
Bit rate mode : Constant
Bit rate : 192 Kbps
Channel(s) : 2 channels
Channel positions : Front: L R
Sampling rate : 48.0 KHz
Bit depth : 16 bits
Compression mode : Lossy
Stream size : 81.1 MiB (10%)
Alignment : Aligned on interleaves
Interleave, duration : 240 ms (6.00 video frames)
Interleave, preload duration : 224 ms
Другие фильмы с участием Люси Уорсли
Viasat History. BBC: Как болезни монархов изменили историю / Fit to Rule: How Royal Illness Changed History (Paul Berczeller, Eleanor Scoones, Nick Gillam-Smith) [2013 г., Документальный, исследование, история, SATRip]
Viasat History. BBC: Женщины эпохи Реставрации (Куртизанки, домохозяйки и героини) / Harlots Housewives and Heroines: A 17th Century History for Girls (Nick Gillam-Smith, Eleanor Scoones) [2012 г., Документальный, исследование, история, HDTVRip 720p]
Viasat History: О любви британцев к танцам / Dancing Cheek to Cheek: An Intimate History of Dance [серии 1 из 3] (Eleanor Scoones) [2014 г., Документальный, исследование, история, SATRip]

Внимание:

Раздача ведётся путём добавления новых серий; при каждом добавлении создаётся новый торрент. Чтобы начать докачку новой серии, пользователям необходимо сделать следующее:
- Остановить скачивание.
- Удалить старый торрент у себя из клиента (старые серии удалять не надо).
- Скачать новый торрент и запустить его у себя в клиенте вместо старого, при этом указать клиенту путь в старую папку куда и должно происходить скачивание новых серий.
Добавлено
03. Эпоха шокирующих перемен / The Shock of the New


Последний раз редактировалось: skorpionN (2015-09-25 21:31), всего редактировалось 7 раз(а)
[Профиль] [ЛС]

KiruhaDelMar

Стаж: 1 год 8 месяцев

Сообщений: 247



Награды: Нет

Торрент-статистика

Создавать темы 12-Сен-2015 09:48 (спустя 2 часа 45 минут)

[Цитировать]

Дядя, an ты индийские танцы еще записал бы
[Профиль] [ЛС]

skorpionN ®

Пол:

Стаж: 1 год 8 месяцев

Сообщений: 591



Награды: 4 (Подробнее)

Mega Seeder 3 (Количество: 1) Mega Seeder 2 (Количество: 1) Top Releaser 2 (Количество: 1)
Торрент-статистика

Создавать темы 12-Сен-2015 10:26 (спустя 37 минут)

[Цитировать]

KiruhaDelMar, если тебе надо то скажи. Здесь история Британии в одной из форм
[Профиль] [ЛС]
Кто просматривает тему:

Форум Тема Автор Размер
Viasat History Viasat History: BBC: Железные дороги в годы Первой мировой войны / Michael Portillo's Railways of the Great War [серии 1-5 из 5] (Tom Richardson) [2014 г., Документальный, история, HDTVRip 720p] skorpionN 3.72 GB
Viasat History Viasat History: BBC: Отчаянные дегустаторы отправляются / The Supersizers Go... [1 сезон 7 (7) 2 сезон 6 (7)] (Tом Ковени, Нил Фергюсон) [2008-2009 г., Реалити-шоу, SATRip] skorpionN 10.72 GB
Viasat History Viasat History: Американские принцессы на миллион долларов / Million Dollar American Princesses [сезон 2 серии 1-3 из 4] (Ian Lilley) [2015 г., Документальный, игровой, биографический, история,... skorpionN 1.94 GB
Viasat History Viasat History: Ватикан и Третий Рейх / The Vatican and the Third Reich (Rufo Pajares) [2014 г., Документальный, история, SATRip] skorpionN 750 MB
Viasat History Viasat History: Величайшие секреты Библии / Secrets of the Bible [серии 1-13 из 13] (Tim Gaunt) [2015 г., Документально-постановочный, история, SATRip] skorpionN 9.07 GB
Viasat History Viasat History: Викинги / Vikings [серии 1-5 из 5] (Paul Russell and Andrea Vogt) [2014 г., Документально-постановочный, история, исследования, SATRip] skorpionN 3.15 GB
Viasat History Viasat History: Восточная Пруссия Гитлера / Hitler's East Prussia [серии 1-2 из 2] (Florian Huber) [2008 г., Документальный, история, SATRip] skorpionN 1.19 GB
Viasat History Viasat History: Гинденбург: Титаник небес / Hindenburg: Titanic of the Skies (Шон Гранди / Sean Grundy) [2007 г., Документально- постановочный, драма, SATRip] skorpionN 1.24 GB
Показать сообщения:    

Текущее время: Сегодня 11:54

Часовой пояс: GMT



Вы не можете начинать темы
Вы не можете отвечать на сообщения
Вы не можете редактировать свои сообщения
Вы не можете удалять свои сообщения
Вы не можете голосовать в опросах
Вы не можете прикреплять файлы к сообщениям
Вы не можете скачивать файлы