Viasat History: Охота на ведьм: столетие убийств / Witch Hunt A Century of Murder [серии 1-2 из 2] (Chris Holt) [2015 г., Документально-постановчный, история, SATRip]

 
Author Message

skorpionN ®

Gender:

Longevity: 5 years 2 months

Posts: 944



: 4 ()

Mega Seeder 3 (1) Mega Seeder 1 (1) Mega Seeder 2 (1)
Торрент-статистика

Post 27-Apr-2016 21:11

[Quote]

Viasat History: Охота на ведьм: столетие убийств / Witch Hunt A Century of Murder [серии 1-2 из 2]
Год выпуска: 2015
Страна: Великобритания, Channel 5 Broadcasting Ltd.
Жанр: Документально-постановчный, история
Продолжительность: 2x~00:44:49
Перевод: Профессиональный (одноголосый), переведено и озвучено на студии "SDI Media", перевод Ольги Юлдашевой, текст читает Виктория Бабанова
Режиссер: Chris Holt
В ролях: Ведущая - жоктор Сюзанна Липскомб
Качество: SATRip
Формат: AVI
Видео кодек: XviD
Аудио кодек: AC3
Видео: 704x400 25fps 1800kbps
Аудио: AC3 2ch, 48kHz, 192 kbps
Описание:
Часть 1:
Доктор Сюзанна Липскомб узнаёт, что происходило 400 лет назад с теми, кого обвиняли в колдовстве, а также почему больше мужчин, чем женщин, пыталось вырваться из Британии.
Часть 2:
Вы увидите, как предприимчивый молодой пуританин Мэтью Хопкинс сумел почувствовать дух времени и получить огромную выгоду от осуждения сотен невинных людей.

Скриншоты


MediaInfo:

Format : AVI
Format/Info : Audio Video Interleave
File size : 639 MiB
Duration : 44mn 48s
Overall bit rate : 1 994 Kbps
Writing application : TMPGEnc Video Mastering Works 5 Version. 5.0.6.38
Writing library : TMPGEnc Video Mastering Works 5 Version. 5.0.6.38
Video
ID : 0
Format : MPEG-4 Visual
Format profile : Advanced Simple@L5
Format settings, BVOP : 2
Format settings, QPel : No
Format settings, GMC : No warppoints
Format settings, Matrix : Default (H.263)
Muxing mode : Packed bitstream
Codec ID : XVID
Codec ID/Hint : XviD
Duration : 44mn 48s
Bit rate : 1 795 Kbps
Width : 704 pixels
Height : 400 pixels
Display aspect ratio : 16:9
Frame rate : 25.000 fps
Color space : YUV
Chroma subsampling : 4:2:0
Bit depth : 8 bits
Scan type : Progressive
Compression mode : Lossy
Bits/(Pixel*Frame) : 0.255
Stream size : 575 MiB (90%)
Writing library : XviD 73
Audio
ID : 1
Format : AC-3
Format/Info : Audio Coding 3
Mode extension : CM (complete main)
Format settings, Endianness : Big
Codec ID : 2000
Duration : 44mn 48s
Bit rate mode : Constant
Bit rate : 192 Kbps
Channel(s) : 2 channels
Channel positions : Front: L R
Sampling rate : 48.0 KHz
Bit depth : 16 bits
Compression mode : Lossy
Stream size : 61.5 MiB (10%)
Alignment : Aligned on interleaves
Interleave, duration : 240 ms (6.00 video frames)
Interleave, preload duration : 224 ms

Внимание:

Раздача ведётся путём добавления новых серий; при каждом добавлении создаётся новый торрент. Чтобы начать докачку новой серии, пользователям необходимо сделать следующее:
- Остановить скачивание.
- Удалить старый торрент у себя из клиента (старые серии удалять не надо).
- Скачать новый торрент и запустить его у себя в клиенте вместо старого, при этом указать клиенту путь в старую папку куда и должно происходить скачивание новых серий.


Last edited by skorpionN on 2016-05-08 05:26; edited 2 times in total
[Profile] [PM]

KiruhaDelMar

Longevity: 5 years 2 months

Posts: 319



: None

Торрент-статистика

Post 28-Apr-2016 11:42 (after 14 hours)

[Quote]

Шош ты молчишь, а я забыл за них вообще ca
[Profile] [PM]

KiruhaDelMar

Longevity: 5 years 2 months

Posts: 319



: None

Торрент-статистика

Post 28-Apr-2016 12:53 (after 1 hour 11 minutes)

[Quote]

А почему не HD? чет ты булочки расслабил
[Profile] [PM]

Таисия

Longevity: 5 years 2 months

Posts: 38



: 1 ()

Girls (1)
Торрент-статистика

Post 28-Apr-2016 21:24 (after 8 hours)

[Quote]

Спасибо огромное, Скорпион ...
[Profile] [PM]

skorpionN ®

Gender:

Longevity: 5 years 2 months

Posts: 944



: 4 ()

Mega Seeder 3 (1) Mega Seeder 2 (1) Top Releaser 2 (1)
Торрент-статистика

Post 29-Apr-2016 17:48 (after 20 hours)

[Quote]

94439А почему не HD? чет ты булочки расслабил
А пока нету ХД. Придётся тебе жевать булочки bk
[Profile] [PM]
Кто просматривает тему:

Forum Topic Author Size
BBC BBC: Viasat History. Бразды правления. Балет на лошади / Lucy Worsley's Reins of Power: The Art of Horse Dancing (Nick Gillam-Smith) [2015 г., Документальный, история, HDTV 720p] skorpionN 3.04 GB
Viasat History Viasat History: BBC: Железные дороги в годы Первой мировой войны / Michael Portillo's Railways of the Great War [серии 1-5 из 5] (Tom Richardson) [2014 г., Документальный, история, HDTVRip 720p] skorpionN 3.72 GB
Viasat History Viasat History: BBC: Отчаянные дегустаторы отправляются / The Supersizers Go... [1 сезон 7 (7) 2 сезон 6 (7)] (Tом Ковени, Нил Фергюсон) [2008-2009 г., Реалити-шоу, SATRip] skorpionN 10.72 GB
Viasat History Viasat History: Американские принцессы на миллион долларов / Million Dollar American Princesses [сезоны 1-2 серии 1-7 из 7] (Ian Lilley) [2015-2016 г., Документальный, игровой, биографи... skorpionN 4.51 GB
Viasat History Viasat History: Ватикан и Третий Рейх / The Vatican and the Third Reich (Rufo Pajares) [2014 г., Документальный, история, SATRip] skorpionN 750 MB
Viasat History Viasat History: Величайшие секреты Библии / Secrets of the Bible [серии 1-13 из 13] (Tim Gaunt) [2015 г., Документально-постановочный, история, SATRip] skorpionN 9.07 GB
Viasat History Viasat History: Викинги / Vikings [серии 1-5 из 5] (Paul Russell and Andrea Vogt) [2014 г., Документально-постановочный, история, исследования, SATRip] skorpionN 3.15 GB
Viasat History Viasat History: Восточная Пруссия Гитлера / Hitler's East Prussia [серии 1-2 из 2] (Florian Huber) [2008 г., Документальный, история, SATRip] skorpionN 1.19 GB
Display posts from previous:    

The time now is: Today 11:04

All times are GMT



You cannot post new topics in this forum
You cannot reply to topics in this forum
You cannot edit your posts in this forum
You cannot delete your posts in this forum
You cannot vote in polls in this forum
You cannot attach files in this forum
You cannot download files in this forum