Viasat History: Музейные тайны / Mysteries at the Museum [сезон 1 серии 1-12 из 12] (Лаура Миллер, Макс Исааксон, Маделин Маринер) [2010 г., Документально-постановочный, история, археология, мифы, тайны, SATRip]

 
Автор Сообщение

skorpionN ®

Пол:

Стаж: 1 год 8 месяцев

Сообщений: 592



Награды: 4 (Подробнее)

Mega Seeder 1 (Количество: 1) Top Releaser 2 (Количество: 1) Mega Seeder 3 (Количество: 1)
Торрент-статистика

Создавать темы 15-Мар-2015 14:36

[Цитировать]

Viasat History: Музейные тайны / Mysteries at the Museum [сезон 1 серии 1-12 из 12]
Год выпуска: 2010
Страна: США, The Travel Channel, Optomen Productions
Жанр: Документально-постановочный, история, археология, мифы, тайны
Продолжительность: 12 x ~ 00:42:00
Перевод: Профессиональный (одноголосый)
Режиссер: Лаура Миллер, Макс Исааксон, Маделин Маринер
В ролях: Дон Вайлдман, Ховард Харрис, Фрэнк Бёрнс
Качество: SATRip
Формат: AVI
Видео кодек: XviD
Аудио кодек: AC3
Видео: 720x400 25fps 1800kbps
Аудио: AC3, 2 ch, 192kbps
Описание: Музеи обладают удивительными сокровищами, которые помогают нам больше узнать о нашем прошлом. Однако не все знают, что порой экспонаты скрывают в себе загадки и тайны, полные скандалов и интриг, и даже убийств. Мы отправимся в захватывающее и познавательное, а порой шокирующее путешествие по истории. Мы попадем в самые темные и потаенные уголки музеев, и узнаем о невидимых шпионах, хладнокровных убийцах и паранормальных явлениях.
Список серий:

01. Alcatraz; Enigma Machine; Real Mona Lisa

Дон Уайлдмэн расскажет, как муляжи голов, едва не разрушили репутацию тюрьмы Алькатрас, он также раскроет секрет Энигмы и подозрительной Моны Лизы.

02. Prehistoric Monster; 60 year old Govt. Cover Up

Дон Уайлдмэн расскажет о саблезубых кошках, бомбардировщике B-29 и зубных протезах президента Джорджа Вашингтона.

03. San Francisco Quake; Mastodon Story

Дон Уайлдмэн расскажет о драматических событиях, произошедших со старинной пожарной машиной, а также о ружье, которое использовала Патрисия Херст.

04. Japanese WMD's; Houdini Stature...

Дон Уайлдмэн раскроет секрет оружия массового уничтожения, изобретенного японцами во время Второй мировой войны, а также о бюсте великого иллюзиониста Гарри Гудини.

05. Bonnie & Clyde Rifle; Deep Sea Fish

Дон Уайлдмэн изучит ружье Бонни и Клайда, а также экстравагантную глубоководную рыбу.

06. T Rex Skeleton; Slinky & McKinley Nightshirt

В Музее естественной истории им. Филда в Чикаго находится скелет самого большого в мире тиранозавра рекса. Дон расскажет, какую роль занимал этот динозавр в цепи питания в доисторические времена.

07. Greensboro Lunch; Radithor; WWII U-Boat

Дон расскажет о некогда очень популярном наркотике-панацее под названием «радитор», который в итоге разрушил множество жизней. Он также расскажет о буфетной стойке Гринсборо и подводной лодке U-505.

08. Rosa Parks; Elliot Ness; Bigfoot

В этой серии. Дон исследует манускрипт и очечник с загадочными отверстиями, а также раскроет секрет, как эти два экспоната спасли Теодора Рузвельта от пули наемного убийцы.

09. Theremin; Silly Putty; Tacoma Narrows Bridge

В этой серии. Странный инструмент породивший шпионский скандал, дерево, расколотое катастрофическим взрывом, шокирующая находка 119 мумий на кладбище .

10. Dillingers Death Mask; Frisbee; Shipwreck

В этой серии. Лестницы и летающие диски, внедорожники и преступники, найденные обломки и потерянные суда. Трагедия 11 сентября 2001 года поразила весь мир. Однако это не первые события, которые принесли смерть и разрушения в Нью-Йорк. Дон Уайлдмэн ведет расследование.

11. USS Intrepid; Seattle Glue Pot; Wing Walkers

Дон Уайлдмэн расскажет историю о старинном горшке, который навсегда изменил город Сиэтл. Он также исследует оружие времен Второй мировой войны, которого все боялись больше всего

12. Concorde; Robert the Doll; Unabombers Shack

Дон Уайлдмэн расскажет о первом и единственном сверхскоростном коммерческом самолете, и о том, как эта революционная машина превратилась в музейный экспонат.

MediaInfo:

Format : AVI
Format/Info : Audio Video Interleave
File size : 603 MiB
Duration : 42mn 8s
Overall bit rate : 2 001 Kbps
Writing application : VirtualDubMod 1.5.10.3 | www.virtualdub-fr.org || (build 2550/release)
Writing library : VirtualDubMod build 2550/release
Video
ID : 0
Format : MPEG-4 Visual
Format profile : Advanced Simple@L5
Format settings, BVOP : 2
Format settings, QPel : No
Format settings, GMC : No warppoints
Format settings, Matrix : Default (H.263)
Codec ID : XVID
Codec ID/Hint : XviD
Duration : 42mn 8s
Bit rate : 1 800 Kbps
Width : 720 pixels
Height : 400 pixels
Display aspect ratio : 16:9
Frame rate : 25.000 fps
Color space : YUV
Chroma subsampling : 4:2:0
Bit depth : 8 bits
Scan type : Progressive
Compression mode : Lossy
Bits/(Pixel*Frame) : 0.250
Stream size : 543 MiB (90%)
Writing library : XviD 1.2.1 (UTC 2008-12-04)
Audio
ID : 1
Format : AC-3
Format/Info : Audio Coding 3
Mode extension : CM (complete main)
Format settings, Endianness : Big
Codec ID : 2000
Duration : 42mn 8s
Bit rate mode : Constant
Bit rate : 192 Kbps
Channel(s) : 2 channels
Channel positions : Front: L R
Sampling rate : 48.0 KHz
Bit depth : 16 bits
Compression mode : Lossy
Stream size : 57.9 MiB (10%)
Alignment : Split accross interleaves
Interleave, duration : 40 ms (1.00 video frame)
Interleave, preload duration : 500 ms
Из этой серии:
Музейные тайны / Mysteries at the Museum[сезон 1 серии 1-12 из 12]
Музейные тайны / Mysteries at the Museum[сезон 2 серии 1-24 из 24]
Музейные тайны / Mysteries at the Museum[сезон 3 серии 1-13 из 13]
Музейные тайны / Mysteries at the Museum[сезон 4 серии 1-12 из 12]
Музейные тайны / Mysteries at the Museum[сезон 5 серии 1-13 из 13]
Музейные тайны / Mysteries at the Museum[сезон 6 серии 4-13 из 13]
Музейные тайны / Mysteries at the Museum[сезон 7 серии 5-13 из 13]
[Профиль] [ЛС]
Кто просматривает тему:

Форум Тема Автор Размер
Viasat History Viasat History: BBC: Железные дороги в годы Первой мировой войны / Michael Portillo's Railways of the Great War [серии 1-5 из 5] (Tom Richardson) [2014 г., Документальный, история, HDTVRip 720p] skorpionN 3.72 GB
Viasat History Viasat History: BBC: Отчаянные дегустаторы отправляются / The Supersizers Go... [1 сезон 7 (7) 2 сезон 6 (7)] (Tом Ковени, Нил Фергюсон) [2008-2009 г., Реалити-шоу, SATRip] skorpionN 10.72 GB
Viasat History Viasat History: Американские принцессы на миллион долларов / Million Dollar American Princesses [сезон 2 серии 1-4 из 4] (Ian Lilley) [2015 г., Документальный, игровой, биографический, история,... skorpionN 2.58 GB
Viasat History Viasat History: Ватикан и Третий Рейх / The Vatican and the Third Reich (Rufo Pajares) [2014 г., Документальный, история, SATRip] skorpionN 750 MB
Viasat History Viasat History: Величайшие секреты Библии / Secrets of the Bible [серии 1-13 из 13] (Tim Gaunt) [2015 г., Документально-постановочный, история, SATRip] skorpionN 9.07 GB
Viasat History Viasat History: Викинги / Vikings [серии 1-5 из 5] (Paul Russell and Andrea Vogt) [2014 г., Документально-постановочный, история, исследования, SATRip] skorpionN 3.15 GB
Viasat History Viasat History: Восточная Пруссия Гитлера / Hitler's East Prussia [серии 1-2 из 2] (Florian Huber) [2008 г., Документальный, история, SATRip] skorpionN 1.19 GB
Viasat History Viasat History: Гинденбург: Титаник небес / Hindenburg: Titanic of the Skies (Шон Гранди / Sean Grundy) [2007 г., Документально- постановочный, драма, SATRip] skorpionN 1.24 GB
Показать сообщения:    

Текущее время: Сегодня 10:10

Часовой пояс: GMT



Вы не можете начинать темы
Вы не можете отвечать на сообщения
Вы не можете редактировать свои сообщения
Вы не можете удалять свои сообщения
Вы не можете голосовать в опросах
Вы не можете прикреплять файлы к сообщениям
Вы не можете скачивать файлы