Viasat History: Катастрофа европейского еврейства / Annihilation - The Destruction of Europe's Jews (Jusqu'au dernier: La destruction des juifs d'Europe) [серии 1-8 из 8] (Вильям Карэл, Бланш Фигнер) [2014 г., Документальный, история,

 
Автор Сообщение

skorpionN ®

Пол:

Стаж: 1 год 8 месяцев

Сообщений: 579



Награды: 4 (Подробнее)

Mega Seeder 3 (Количество: 1) Top Releaser 2 (Количество: 1) Mega Seeder 1 (Количество: 1)
Торрент-статистика

Создавать темы 15-Мар-2015 13:14

[Цитировать]

Viasat History: Катастрофа европейского еврейства / Annihilation - The Destruction of Europe's Jews (Jusqu'au dernier: La destruction des juifs d'Europe)[серии 1-8 из 8]
Год выпуска: 2014
Страна: Франция, Zadig Productions - Looks Film
Жанр: Документальный, история
Продолжительность: 8х ~ 00:55:25
Перевод: Профессиональный (одноголосый)- Переведено и озвучено на студии "SDI Media" перевод Т. Вишневской, текст читал Роман Антанович
Режиссер: Вильям Карэл, Бланш Фигнер
Описание: Впервые историки и специалисты проведут полный анализ истории уничтожения еврейского народа во время Второй Мировой войны. Они попытаются установить причину возникновения геноцида и объяснить, почему евреи подверглись преследованию и массовому уничтожению нацистами сначала в Германии, а затем и по всей Европе. Сериал рассказывает об этапах, которые привели к «окончательному решению еврейского вопроса», об определении «еврей», и далее о конфискации имущества, разлучении с родственниками и депортации, ссылке в лагеря и принудительном труде, массовых убийствах и газовых камерах. Около 6 млн. евреев, 2/3 евреев Европы, были уничтожены нацистами и их приспешниками во время Второй мировой войны. Их убивали, а мир молчал. Они умерли от голода и болезней в гетто Польши и оккупированного СССР. Более миллиона из них были убиты айнзацгруппами, эскадронами смерти нацистов, проводившими массовые чистки. Многие погибли в газовых камерах лагерей смерти в Хелмно, Белжеца, Собибора, Треблинки, а также Майданека и Освенцима-Биркенау. Все эти лагеря располагались на территории Польши.
Список серий:
01. Конец иллюзиям / The end of illusion
02. Ловушка / The Trap
03. Нацистская машина / The Nazi Machine
04. Обреченные на смерть / In the Face of Death
05. Окончательное решение / The Final Solution
06. Выжившие / The Survivors
07. Анатомия массовых убийств / Autopsy of a mass murder (The Trials)
08. Чтобы помнили / Lest We Forcet

Качество: SATRip
Формат: AVI
Видео кодек: XviD
Аудио кодек: AC3
Видео: 704x400 25fps 1798kbps
Аудио: AC3, 2 ch, 192kbps

Скриншоты


MediaInfo:

Format : AVI
Format/Info : Audio Video Interleave
File size : 792 MiB
Duration : 55mn 25s
Overall bit rate : 1 998 Kbps
Writing application : TMPGEnc Video Mastering Works 5 Version. 5.0.6.38
Writing library : TMPGEnc Video Mastering Works 5 Version. 5.0.6.38
Video
ID : 0
Format : MPEG-4 Visual
Format profile : Advanced Simple@L5
Format settings, BVOP : 2
Format settings, QPel : No
Format settings, GMC : No warppoints
Format settings, Matrix : Default (H.263)
Muxing mode : Packed bitstream
Codec ID : XVID
Codec ID/Hint : XviD
Duration : 55mn 25s
Bit rate : 1 798 Kbps
Width : 704 pixels
Height : 400 pixels
Display aspect ratio : 16:9
Frame rate : 25.000 fps
Color space : YUV
Chroma subsampling : 4:2:0
Bit depth : 8 bits
Scan type : Progressive
Compression mode : Lossy
Bits/(Pixel*Frame) : 0.255
Stream size : 713 MiB (90%)
Writing library : XviD 73
Audio
ID : 1
Format : AC-3
Format/Info : Audio Coding 3
Mode extension : CM (complete main)
Format settings, Endianness : Big
Codec ID : 2000
Duration : 55mn 25s
Bit rate mode : Constant
Bit rate : 192 Kbps
Channel(s) : 2 channels
Channel positions : Front: L R
Sampling rate : 48.0 KHz
Bit depth : 16 bits
Compression mode : Lossy
Stream size : 76.1 MiB (10%)
Alignment : Aligned on interleaves
Interleave, duration : 240 ms (6.00 video frames)
Interleave, preload duration : 224 ms

Внимание:

Раздача ведётся путём добавления новых серий; при каждом добавлении создаётся новый торрент. Чтобы начать докачку новой серии, пользователям необходимо сделать следующее:
- Остановить скачивание.
- Удалить старый торрент у себя из клиента (старые серии удалять не надо).
- Скачать новый торрент и запустить его у себя в клиенте вместо старого, при этом указать клиенту путь в старую папку куда и должно происходить скачивание новых серий.
Добавлена серия 08. Чтобы помнили / Lest We Forcet


Последний раз редактировалось: skorpionN (2015-05-02 12:09), всего редактировалось 7 раз(а)
[Профиль] [ЛС]

Таисия

Стаж: 1 год 8 месяцев

Сообщений: 37



Награды: 1 (Подробнее)

Girls (Количество: 1)
Торрент-статистика

Создавать темы 20-Мар-2015 20:05 (спустя 5 дней)

[Цитировать]

СПАСИБО ....
[Профиль] [ЛС]

skorpionN ®

Пол:

Стаж: 1 год 8 месяцев

Сообщений: 579



Награды: 4 (Подробнее)

Mega Seeder 1 (Количество: 1) Top Releaser 2 (Количество: 1) Mega Seeder 2 (Количество: 1)
Торрент-статистика

Создавать темы 25-Мар-2015 06:30 (спустя 4 дня)

[Цитировать]

Сезон окончен hmmm
[Профиль] [ЛС]

guddie59

Стаж: 1 год 3 месяца

Сообщений: 1



Награды: Нет

Торрент-статистика

Создавать темы 31-Авг-2015 15:33 (спустя 5 месяцев 6 дней)

[Цитировать]

Thanks for sharing this great serie.... :)
[Профиль] [ЛС]
Кто просматривает тему:

Форум Тема Автор Размер
Viasat History Viasat History: BBC: Железные дороги в годы Первой мировой войны / Michael Portillo's Railways of the Great War [серии 1-5 из 5] (Tom Richardson) [2014 г., Документальный, история, HDTVRip 720p] skorpionN 3.72 GB
Viasat History Viasat History: BBC: Отчаянные дегустаторы отправляются / The Supersizers Go... [1 сезон 7 (7) 2 сезон 6 (7)] (Tом Ковени, Нил Фергюсон) [2008-2009 г., Реалити-шоу, SATRip] skorpionN 10.72 GB
Viasat History Viasat History: Американские принцессы на миллион долларов / Million Dollar American Princesses [сезон 2 серии 1-3 из 4] (Ian Lilley) [2015 г., Документальный, игровой, биографический, история,... skorpionN 1.94 GB
Viasat History Viasat History: Ватикан и Третий Рейх / The Vatican and the Third Reich (Rufo Pajares) [2014 г., Документальный, история, SATRip] skorpionN 750 MB
Viasat History Viasat History: Величайшие секреты Библии / Secrets of the Bible [серии 1-13 из 13] (Tim Gaunt) [2015 г., Документально-постановочный, история, SATRip] skorpionN 9.07 GB
Viasat History Viasat History: Викинги / Vikings [серии 1-5 из 5] (Paul Russell and Andrea Vogt) [2014 г., Документально-постановочный, история, исследования, SATRip] skorpionN 3.15 GB
Viasat History Viasat History: Восточная Пруссия Гитлера / Hitler's East Prussia [серии 1-2 из 2] (Florian Huber) [2008 г., Документальный, история, SATRip] skorpionN 1.19 GB
Viasat History Viasat History: Гинденбург: Титаник небес / Hindenburg: Titanic of the Skies (Шон Гранди / Sean Grundy) [2007 г., Документально- постановочный, драма, SATRip] skorpionN 1.24 GB
Показать сообщения:    

Текущее время: Сегодня 11:57

Часовой пояс: GMT



Вы не можете начинать темы
Вы не можете отвечать на сообщения
Вы не можете редактировать свои сообщения
Вы не можете удалять свои сообщения
Вы не можете голосовать в опросах
Вы не можете прикреплять файлы к сообщениям
Вы не можете скачивать файлы