Viasat History: Как болезни монархов изменили историю / Fit to Rule: How Royal Illness Changed History [серии 1-3 из 3] (Paul Berczeller, Eleanor Scoones, Nick Gillam-Smith) [2013 г., Документальный, исследование, история, SATRip]

 
Автор Сообщение

skorpionN ®

Пол:

Стаж: 1 год 8 месяцев

Сообщений: 591



Награды: 4 (Подробнее)

Top Releaser 2 (Количество: 1) Mega Seeder 3 (Количество: 1) Mega Seeder 2 (Количество: 1)
Торрент-статистика

Создавать темы 24-Июн-2015 21:38

[Цитировать]

Viasat History: Как болезни монархов изменили историю / Fit to Rule: How Royal Illness Changed History [серии 1-3 из 3]
Год выпуска: 2013
Страна: Великобритания, Silver River
Жанр: Документальный, исследование, история
Продолжительность: 3x~00:59:01
Перевод: Профессиональный (одноголосый), переведено и озвучено на студии "SDI Media" перевод Геннадия Максимова, текст читает Виктория Бабанова
Режиссер: Paul Berczeller, Eleanor Scoones, Nick Gillam-Smith
В ролях: ведущая - Люси Уорсли
Описание: Люси Уорсли изучит медицинские заключения, личную переписку и даже одежду королей, чтобы понять, с какими проблемами они сталкивались. Люси начнет свой рассказ с Генриха VIII, который постоянно находился под пристальным вниманием врачей. Затем, мы узнаем, какие проблемы были у сына Генриха Эдварда VI, когда он стал королем в 9 лет. Мы также узнаем о трагической судьбе королевы Марии и ее мнимой беременности. Затем Люси расскажет о короле Чарльзе I и его проблемной походке, что позднее сказалось на его характере. В заключении перед нами предстанет Георг III, который, возможно, страдал от маниакальных депрессий.
Список серий:
01. От богов до людей / Tudors to Stuarts: From Gods to Men
Историк Люси Уорсли, исследуя истории болезней Тюдоров и Стюартов, расскажет, каким образом различные недуги повлияли на судьбу этих двух совершенно разных династий.
02. Дурная кровь: От Стюартов до Гановерцев / Bad Blood: Stuarts to Hanoverians
Историк Люси Уорсли исследует истории болезней последних представителей рода Стюартов, начиная с короля Иакова II и заканчивая возникновением Ганноверской династии.
03. Счастливые семейства. От Гановерцев к Виндзорам / Happy Families: Hanoverians to Windsors
Историк Люси Уорсли исследует истории болезней королевы Виктории и ее потомков.
Качество: SATRip
Формат: AVI
Видео кодек: XviD
Аудио кодек: AC3
Видео: 704x400 25fps 1800kbps
Аудио: AC3, 2 ch, 192kbps
Другие фильмы с участием Люси Уорсли
Viasat History. BBC: Как болезни монархов изменили историю / Fit to Rule: How Royal Illness Changed History (Paul Berczeller, Eleanor Scoones, Nick Gillam-Smith) [2013 г., Документальный, исследование, история, SATRip]
Viasat History. BBC: Женщины эпохи Реставрации (Куртизанки, домохозяйки и героини) / Harlots Housewives and Heroines: A 17th Century History for Girls (Nick Gillam-Smith, Eleanor Scoones) [2012 г., Документальный, исследование, история, HDTVRip 720p]
Viasat History: О любви британцев к танцам / Dancing Cheek to Cheek: An Intimate History of Dance [серии 1 из 3] (Eleanor Scoones) [2014 г., Документальный, исследование, история, SATRip]

Скриншоты


MediaInfo:

Format : AVI
Format/Info : Audio Video Interleave
File size : 848 MiB
Duration : 59mn 1s
Overall bit rate : 2 009 Kbps
Writing application : VirtualDubMod 1.5.10.3 | www.virtualdub-fr.org || (build 2550/release)
Writing library : VirtualDubMod build 2550/release
Video
ID : 0
Format : MPEG-4 Visual
Format profile : Advanced Simple@L5
Format settings, BVOP : 2
Format settings, QPel : Yes
Format settings, GMC : 3 warppoints
Format settings, Matrix : Default (H.263)
Codec ID : XVID
Codec ID/Hint : XviD
Duration : 59mn 1s
Bit rate : 1 808 Kbps
Width : 704 pixels
Height : 400 pixels
Display aspect ratio : 16:9
Frame rate : 25.000 fps
Color space : YUV
Chroma subsampling : 4:2:0
Bit depth : 8 bits
Scan type : Progressive
Compression mode : Lossy
Bits/(Pixel*Frame) : 0.257
Stream size : 763 MiB (90%)
Writing library : XviD 1.2.1 (UTC 2008-12-04)
Audio
ID : 1
Format : AC-3
Format/Info : Audio Coding 3
Mode extension : CM (complete main)
Format settings, Endianness : Big
Codec ID : 2000
Duration : 59mn 1s
Bit rate mode : Constant
Bit rate : 192 Kbps
Channel(s) : 2 channels
Channel positions : Front: L R
Sampling rate : 48.0 KHz
Compression mode : Lossy
Stream size : 81.0 MiB (10%)
Alignment : Split accross interleaves
Interleave, duration : 40 ms (1.00 video frame)
Interleave, preload duration : 500 ms

Внимание:

Раздача ведётся путём добавления новых серий; при каждом добавлении создаётся новый торрент. Чтобы начать докачку новой серии, пользователям необходимо сделать следующее:
- Остановить скачивание.
- Удалить старый торрент у себя из клиента (старые серии удалять не надо).
- Скачать новый торрент и запустить его у себя в клиенте вместо старого, при этом указать клиенту путь в старую папку куда и должно происходить скачивание новых серий.
Добавлено 02. Дурная кровь: От Стюартов до Гановерцев / Bad Blood: Stuarts to Hanoverians


Последний раз редактировалось: skorpionN (2015-09-12 07:10), всего редактировалось 4 раз(а)
[Профиль] [ЛС]

KiruhaDelMar

Стаж: 1 год 8 месяцев

Сообщений: 247



Награды: Нет

Торрент-статистика

Создавать темы 02-Июл-2015 11:26 (спустя 7 дней)

[Цитировать]

Пипец
[Профиль] [ЛС]
Кто просматривает тему:

Форум Тема Автор Размер
Viasat History Viasat History: BBC: Железные дороги в годы Первой мировой войны / Michael Portillo's Railways of the Great War [серии 1-5 из 5] (Tom Richardson) [2014 г., Документальный, история, HDTVRip 720p] skorpionN 3.72 GB
Viasat History Viasat History: BBC: Отчаянные дегустаторы отправляются / The Supersizers Go... [1 сезон 7 (7) 2 сезон 6 (7)] (Tом Ковени, Нил Фергюсон) [2008-2009 г., Реалити-шоу, SATRip] skorpionN 10.72 GB
Viasat History Viasat History: Американские принцессы на миллион долларов / Million Dollar American Princesses [сезон 2 серии 1-4 из 4] (Ian Lilley) [2015 г., Документальный, игровой, биографический, история,... skorpionN 2.58 GB
Viasat History Viasat History: Ватикан и Третий Рейх / The Vatican and the Third Reich (Rufo Pajares) [2014 г., Документальный, история, SATRip] skorpionN 750 MB
Viasat History Viasat History: Величайшие секреты Библии / Secrets of the Bible [серии 1-13 из 13] (Tim Gaunt) [2015 г., Документально-постановочный, история, SATRip] skorpionN 9.07 GB
Viasat History Viasat History: Викинги / Vikings [серии 1-5 из 5] (Paul Russell and Andrea Vogt) [2014 г., Документально-постановочный, история, исследования, SATRip] skorpionN 3.15 GB
Viasat History Viasat History: Восточная Пруссия Гитлера / Hitler's East Prussia [серии 1-2 из 2] (Florian Huber) [2008 г., Документальный, история, SATRip] skorpionN 1.19 GB
Viasat History Viasat History: Гинденбург: Титаник небес / Hindenburg: Titanic of the Skies (Шон Гранди / Sean Grundy) [2007 г., Документально- постановочный, драма, SATRip] skorpionN 1.24 GB
Показать сообщения:    

Текущее время: Сегодня 05:20

Часовой пояс: GMT



Вы не можете начинать темы
Вы не можете отвечать на сообщения
Вы не можете редактировать свои сообщения
Вы не можете удалять свои сообщения
Вы не можете голосовать в опросах
Вы не можете прикреплять файлы к сообщениям
Вы не можете скачивать файлы