Viasat History: История итальянской еды (История еды. История Италии на тарелке) / Eating History. The story of Italy a Plate [серии 1-6 из 6] (Jesus Garces Lambert) [2015-16 г., Документальный, история, SATRip]

 
Автор Сообщение

skorpionN ®

Пол:

Стаж: 1 год 8 месяцев

Сообщений: 585



Награды: 4 (Подробнее)

Top Releaser 2 (Количество: 1) Mega Seeder 3 (Количество: 1) Mega Seeder 2 (Количество: 1)
Торрент-статистика

Создавать темы 10-Июн-2016 06:12

[Цитировать]

Viasat History: История итальянской еды (История еды. История Италии на тарелке) / Eating History. The story of Italy a Plate [серии 1-6 из 6]
Год выпуска: 2015-16
Страна: Италия, GA&A Productions in coproduction with A&E Networks. In association with SBS-TV Australia, Autentic GmbH and Viasat
Жанр: Документальный, история
Продолжительность: 6x~00:51:30
Перевод: Профессиональный (одноголосый), переведено и озвучено на студии "SDI Media", перевод Ольги Тимошенко, текст Роман Антанович
Режиссер: Jesus Garces Lambert
В ролях: Ведущий - историк Джон Дики
Описание: История итальянской кухни - это приключение, которое начинается задолго до рекламы о том, как мамуля делает гноччи для своего малыша или как крестьяне едят пиццу под перголой. Идея того, что итальянская кухня берёт начало в деревенской простоте, в корне неверна. Эта передача покажет вам, что итальянская еда - это городская еда. Пока крестьяне голодали, города накапливали всё необходимое для создания превосходной кухни: деньги, запасы, рынки, политическое влияние, коммерческую жилку, талантливых поваров и привередливых потребителей. Итальянская индивидуальность и вместе с ней вкус формировались среди великолепия римских руин и молчаливой красоты венецианских каналов, среди зловонных аллей Неаполя и мрачных портиков Болоньи, на фоне великолепия Ренессанса Флоренции и пульсирующих заводов Милана.
Список серий:
01. Что ели римляне / Whats the Romans Ate
Путешествие Джона Дики по гастрономической Италии начинается с древнего Рима. В этой серии Джон расскажет нам о том что ели зрители Колизея пока на арене шло кровопролитие, попробует напитки римлян и отведает другие яства. Джон заглянет в мешочек легионера, испробует на себе энергетический коктейль, который пили гладиаторы перед боем.
02. Святая пища / Holy Food
Как католицизм сыграл главную роль в формировании многовековой диеты итальянцев? Джон Дикки исследует, что ели римские понтифики и то, как нарушались правила христианского поста.
03. Кухня власти / Power Lunch
Джон Дикки отправляется в палаты власть имущих Италии, чтобы узнать, что они ели. Как Чарльз V использовал еду для демонстрации власти? И почему Муссолини посадил всю страну на один лишь хлеб и рис?
04. История итальянских макарон / The Private life of Pasta
В этой серии мы узнаем, что Марко Поло, на самом деле, не привозил спагетти из Китая. Также Джон Дикки побывает там, где производят пасту и научится пользоваться древним прессом для пасты.
05. Голодные годы / Going Hungry
Джон Дикки расскажет нам о том, как правители Италии отвлекали толпу от голода, устраивая жестокие игры за еду, и о том, чем питались солдаты в Первую мировую, когда правительство их бросило.
06. Да здравствует Италия! / Viva L'Italia
Джон Дикки расскажет нам, как ограничения и запреты вынудили итальянских домохозяек готовить из того, что было, и в результате появилась итальянская кухня, покорившая весь мир.
Качество: SATRip
Формат: AVI
Видео кодек: XviD
Аудио кодек: AC3
Видео: 704x400 25fps 1800kbps
Аудио: AC3 2ch, 48kHz, 192 kbps

Скриншоты


MediaInfo:

Format : AVI
Format/Info : Audio Video Interleave
File size : 732 MiB
Duration : 51mn 31s
Overall bit rate : 1 986 Kbps
Writing application : TMPGEnc Video Mastering Works 5 Version. 5.0.6.38
Writing library : TMPGEnc Video Mastering Works 5 Version. 5.0.6.38
Video
ID : 0
Format : MPEG-4 Visual
Format profile : Advanced Simple@L5
Format settings, BVOP : 2
Format settings, QPel : No
Format settings, GMC : No warppoints
Format settings, Matrix : Default (H.263)
Muxing mode : Packed bitstream
Codec ID : XVID
Codec ID/Hint : XviD
Duration : 51mn 31s
Bit rate : 1 786 Kbps
Width : 704 pixels
Height : 400 pixels
Display aspect ratio : 16:9
Frame rate : 25.000 fps
Color space : YUV
Chroma subsampling : 4:2:0
Bit depth : 8 bits
Scan type : Progressive
Compression mode : Lossy
Bits/(Pixel*Frame) : 0.254
Stream size : 658 MiB (90%)
Writing library : XviD 73
Audio
ID : 1
Format : AC-3
Format/Info : Audio Coding 3
Mode extension : CM (complete main)
Format settings, Endianness : Big
Codec ID : 2000
Duration : 51mn 31s
Bit rate mode : Constant
Bit rate : 192 Kbps
Channel(s) : 2 channels
Channel positions : Front: L R
Sampling rate : 48.0 KHz
Compression mode : Lossy
Stream size : 70.7 MiB (10%)
Alignment : Aligned on interleaves
Interleave, duration : 240 ms (6.00 video frames)
Interleave, preload duration : 224 ms

Внимание:

Раздача ведётся путём добавления новых серий; при каждом добавлении создаётся новый торрент. Чтобы начать докачку новой серии, пользователям необходимо сделать следующее:
- Остановить скачивание.
- Удалить старый торрент у себя из клиента (старые серии удалять не надо).
- Скачать новый торрент и запустить его у себя в клиенте вместо старого, при этом указать клиенту путь в старую папку куда и должно происходить скачивание новых серий.
Добавлено

06. Да здравствует Италия! / Viva L'Italia


Последний раз редактировалось: skorpionN (2016-07-14 20:00), всего редактировалось 2 раз(а)
[Профиль] [ЛС]

Таисия

Стаж: 1 год 8 месяцев

Сообщений: 37



Награды: 1 (Подробнее)

Girls (Количество: 1)
Торрент-статистика

Создавать темы 02-Июл-2016 18:49 (спустя 22 дня)

[Цитировать]

Еще 2 серии ?? Подождем ....Нет проблем ....
[Профиль] [ЛС]
Кто просматривает тему:

Форум Тема Автор Размер
Viasat History Viasat History: BBC: Железные дороги в годы Первой мировой войны / Michael Portillo's Railways of the Great War [серии 1-5 из 5] (Tom Richardson) [2014 г., Документальный, история, HDTVRip 720p] skorpionN 3.72 GB
Viasat History Viasat History: BBC: Отчаянные дегустаторы отправляются / The Supersizers Go... [1 сезон 7 (7) 2 сезон 6 (7)] (Tом Ковени, Нил Фергюсон) [2008-2009 г., Реалити-шоу, SATRip] skorpionN 10.72 GB
Viasat History Viasat History: Американские принцессы на миллион долларов / Million Dollar American Princesses [сезон 2 серии 1-3 из 4] (Ian Lilley) [2015 г., Документальный, игровой, биографический, история,... skorpionN 1.94 GB
Viasat History Viasat History: Ватикан и Третий Рейх / The Vatican and the Third Reich (Rufo Pajares) [2014 г., Документальный, история, SATRip] skorpionN 750 MB
Viasat History Viasat History: Величайшие секреты Библии / Secrets of the Bible [серии 1-13 из 13] (Tim Gaunt) [2015 г., Документально-постановочный, история, SATRip] skorpionN 9.07 GB
Viasat History Viasat History: Викинги / Vikings [серии 1-5 из 5] (Paul Russell and Andrea Vogt) [2014 г., Документально-постановочный, история, исследования, SATRip] skorpionN 3.15 GB
Viasat History Viasat History: Восточная Пруссия Гитлера / Hitler's East Prussia [серии 1-2 из 2] (Florian Huber) [2008 г., Документальный, история, SATRip] skorpionN 1.19 GB
Viasat History Viasat History: Гинденбург: Титаник небес / Hindenburg: Titanic of the Skies (Шон Гранди / Sean Grundy) [2007 г., Документально- постановочный, драма, SATRip] skorpionN 1.24 GB
Показать сообщения:    

Текущее время: Сегодня 10:43

Часовой пояс: GMT



Вы не можете начинать темы
Вы не можете отвечать на сообщения
Вы не можете редактировать свои сообщения
Вы не можете удалять свои сообщения
Вы не можете голосовать в опросах
Вы не можете прикреплять файлы к сообщениям
Вы не можете скачивать файлы