Viasat History: Затерянный мир Александра Великого (1-6 серии из 6) / Alexander’s Lost World (Девид Адамс / David Adams) [2013, Документальный, альтернативная история, псевдоистория HDTVRip 720p]

 
Автор Сообщение

TorrentFilm ®

Пол:

Стаж: 2 года

Сообщений: 7741



Награды: Нет

Торрент-статистика

Создавать темы 14-Май-2015 00:04

[Цитировать]

Viasat History: Затерянный мир Александра Великого / Alexander’s Lost World
Год выпуска: 2013
Страна: Великобритания
Студия: Sky Vision
Жанр: Документальный, альтернативная история, псевдоистория
Продолжительность: 6 x ~ 00:46:00
Перевод: Одноголосый закадровый
Доп. инфо о переводе: CD Медиа
Режиссер: Девид Адамс / David Adams

Содержание серий:

1. Explorations of an Ancient Sea / Исследования Древних Морей
2. The Mother of all Cities / Древний город Бактру. Мать всех городов
3. Alexandria on the Oxus / Александрия Оксианская
4. City of the Lady Moon / Город госпожи Луны
5. The land of the Golden Fleece / Страна Золотого Руна
6. Source of Civilisation / Источник цивилизации
IMDb - 7,5
Описание: На диких, растерзанных войной, степях центральной Азии, следы древнего мира манят исследователей. Здесь 2300 лет назад Александр Македонский ("Великий") стал первым, европейским правителем востока. На берегах реки "Амударьи", Александр Македонский обнаружил высокоразвитую, восточную цивилизацию. Журналист Девид Адамс пытается исследовать отголоски древности, почти исчезнувшие в наши дни... 2400 км по охваченному войной Афганистану.
Сэмпл: http://multi-up.com/1048419
Тип релиза: HDTVRip 720p
Контейнер: MKV
Видео: MPEG-4 AVC, 4600 Кбит/с, 1280x720
Аудио: Русский, MP2, 2 ch, 128 Кбит/с
Аудио 2: Английский, MP2, 2 ch, 128 Кбит/с

MediaInfo

GeneralUnique ID : 177649582955153867490509711428579943061 (0x85A610AD277A149995EC9B098CBEE295)Complete name : M:\Торренты\Документальные\Затерянный мир Александра Великого\5. The land of the Golden Fleece_720p.mkvFormat : MatroskaFormat version : Version 4 / Version 2File size : 1.57 GiBDuration : 46mn 8sOverall bit rate : 4 858 KbpsEncoded date : UTC 2015-05-13 16:18:56Writing application : mkvmerge v6.6.0 ('The Edge Of The In Between') built on Dec 1 2013 17:55:00Writing library : libebml v1.3.0 + libmatroska v1.4.1
VideoID : 1Format : AVCFormat/Info : Advanced Video CodecFormat profile : High@L4.1Format settings, CABAC : YesFormat settings, ReFrames : 9 framesCodec ID : V_MPEG4/ISO/AVCDuration : 46mn 8sBit rate : 4 600 KbpsWidth : 1 280 pixelsHeight : 720 pixelsDisplay aspect ratio : 16:9Frame rate mode : ConstantFrame rate : 25.000 fpsColor space : YUVChroma subsampling : 4:2:0Bit depth : 8 bitsScan type : ProgressiveBits/(Pixel*Frame) : 0.200Stream size : 1.45 GiB (93%)Writing library : x264 core 146 r2538 121396cEncoding settings : cabac=1 / ref=9 / deblock=1:0:0 / analyse=0x3:0x133 / me=umh / subme=9 / psy=1 / psy_rd=1.00:0.10 / mixed_ref=1 / me_range=32 / chroma_me=1 / trellis=2 / 8x8dct=1 / cqm=0 / deadzone=21,11 / fast_pskip=1 / chroma_qp_offset=-3 / threads=6 / lookahead_threads=1 / sliced_threads=0 / nr=0 / decimate=0 / interlaced=0 / bluray_compat=0 / constrained_intra=0 / bframes=12 / b_pyramid=2 / b_adapt=2 / b_bias=0 / direct=3 / weightb=1 / open_gop=0 / weightp=2 / keyint=250 / keyint_min=23 / scenecut=40 / intra_refresh=0 / rc=2pass / mbtree=0 / bitrate=4600 / ratetol=1.0 / qcomp=0.60 / qpmin=0 / qpmax=69 / qpstep=4 / cplxblur=20.0 / qblur=0.5 / ip_ratio=1.40 / pb_ratio=1.30 / aq=1:1.00Language : EnglishDefault : YesForced : No
Audio #1ID : 2Format : MPEG AudioFormat version : Version 1Format profile : Layer 2Codec ID : A_MPEG/L2Codec ID/Hint : MP2Duration : 46mn 8sBit rate mode : ConstantBit rate : 128 KbpsChannel(s) : 2 channelsSampling rate : 48.0 KHzCompression mode : LossyStream size : 42.2 MiB (3%)Language : RussianDefault : YesForced : No
Audio #2ID : 3Format : MPEG AudioFormat version : Version 1Format profile : Layer 2Codec ID : A_MPEG/L2Codec ID/Hint : MP2Duration : 46mn 8sBit rate mode : ConstantBit rate : 128 KbpsChannel(s) : 2 channelsSampling rate : 48.0 KHzCompression mode : LossyStream size : 42.2 MiB (3%)Language : EnglishDefault : NoForced : No
[Профиль] [ЛС]
Кто просматривает тему:

Форум Тема Автор Размер
Viasat History Viasat History: BBC: Железные дороги в годы Первой мировой войны / Michael Portillo's Railways of the Great War [серии 1-5 из 5] (Tom Richardson) [2014 г., Документальный, история, HDTVRip 720p] skorpionN 3.72 GB
Viasat History Viasat History: BBC: Отчаянные дегустаторы отправляются / The Supersizers Go... [1 сезон 7 (7) 2 сезон 6 (7)] (Tом Ковени, Нил Фергюсон) [2008-2009 г., Реалити-шоу, SATRip] skorpionN 10.72 GB
Viasat History Viasat History: Американские принцессы на миллион долларов / Million Dollar American Princesses [сезон 2 серии 1-4 из 4] (Ian Lilley) [2015 г., Документальный, игровой, биографический, история,... skorpionN 2.58 GB
Viasat History Viasat History: Ватикан и Третий Рейх / The Vatican and the Third Reich (Rufo Pajares) [2014 г., Документальный, история, SATRip] skorpionN 750 MB
Viasat History Viasat History: Величайшие секреты Библии / Secrets of the Bible [серии 1-13 из 13] (Tim Gaunt) [2015 г., Документально-постановочный, история, SATRip] skorpionN 9.07 GB
Viasat History Viasat History: Викинги / Vikings [серии 1-5 из 5] (Paul Russell and Andrea Vogt) [2014 г., Документально-постановочный, история, исследования, SATRip] skorpionN 3.15 GB
Viasat History Viasat History: Восточная Пруссия Гитлера / Hitler's East Prussia [серии 1-2 из 2] (Florian Huber) [2008 г., Документальный, история, SATRip] skorpionN 1.19 GB
Viasat History Viasat History: Гинденбург: Титаник небес / Hindenburg: Titanic of the Skies (Шон Гранди / Sean Grundy) [2007 г., Документально- постановочный, драма, SATRip] skorpionN 1.24 GB
Показать сообщения:    

Текущее время: Сегодня 02:32

Часовой пояс: GMT



Вы не можете начинать темы
Вы не можете отвечать на сообщения
Вы не можете редактировать свои сообщения
Вы не можете удалять свои сообщения
Вы не можете голосовать в опросах
Вы не можете прикреплять файлы к сообщениям
Вы не можете скачивать файлы