Viasat History: Запретная история / Forbidden History [сезон 1 серии 1-6 из 6] (Брюс Бюргесс) [2013 г., Документальный, история, исследования, SATRip]

 
Автор Сообщение

skorpionN ®

Пол:

Стаж: 1 год 8 месяцев

Сообщений: 591



Награды: 4 (Подробнее)

Mega Seeder 2 (Количество: 1) Top Releaser 2 (Количество: 1) Mega Seeder 1 (Количество: 1)
Торрент-статистика

Создавать темы 28-Янв-2016 08:54

[Цитировать]

Viasat History: Запретная история / Forbidden History [сезон 1 серии 1-6 из 6]
Год выпуска: 2013
Страна: Великобритания, Forbidden History Productions LTD
Жанр: Документальный, история, исследования
Продолжительность: 6 x ~ 00:46:00
Перевод: Профессиональный (одноголосый), переведено и озвучено на студии "SDI Media", текст читает Р. Антанович
Режиссер: Брюс Бюргесс
В ролях: Ведущий: Джейми Тикстон
Описание: Влиятельные лица не любят, когда новые факты и свидетельства ставят под вопрос давно устоявшиеся истины и представления, принятые как данность столетия назад. В течение многих лет множество уникальных историй и фактов были скрыты или преданы забвению. Однако нашлись смельчаки, которые попытались рассказать правду, которая скрывалась от людей веками. Анализируя и изучая факты и различные свидетельства, и проводя свое собственное расследование, Джейми Тикстон попытается ответить на вопрос – Насколько наши знания о некоторых исторических фактах истинны?
Список серий:
01. Потерянные сокровища Тамплиеров / The lost treasures of the Templars
Джейми попытается узнать всю правду о попытках найти одни из самых великих сокровищ современной истории, а также ответить на вопрос – где же тамплиеры спрятали свои богатства?
02. Третья тайна Фатимы / The Third Secrets of Fatima
Джейми отправляется в Португалию, чтобы встретиться со специалистами, которые бы смогли ответить на вопрос - Действительно ли Ватикан скрыл третий секрет Фатимы?
03. Кровные узы (Генеалогическое древо Христа) / The Bloodline of Christ
Состояли ли в браке Иисус и Мария Магдалина? И были ли у них дети? Джейми отправляется во Францию, чтобы узнать правду о семьях, которые заявляют, что они потомки Иисуса Христа.
04. Тайны гигантов / The Mystery of the Giants
Действительно ли великаны когда-то ходили по земле? Джейми встречается с учеными и археологами, которые обладают удивительными фактами, подтверждающими существование великанов.
05. Сокровища Соломона / The Treasure of Solomon
Джейми отправляется в Иерусалим, чтобы выяснить был ли храм, где находились сокровища царя Соломона, разграблен в 70 до н. э., и были ли они вывезены в Рим или же спрятаны первосвященниками.
06. Секреты алхимиков / The Secrets Of The Alchemists
Джейми попытается узнать всю правду о четырех самых известных алхимиках того времени. Были ли они действительно как-то связаны с потусторонним миром, или же они просто были хорошими иллюзионистами?
Качество: SATRip
Формат: AVI
Видео кодек: XviD
Аудио кодек: AC3
Видео: 720x400 25fps ~1800 Kbps
Аудио: AC3 2ch, 48kHz, 192 kbps

Скриншоты

MediaInfo:

Format : AVI
Format/Info : Audio Video Interleave
File size : 629 MiB
Duration : 43mn 59s
Overall bit rate : 1 998 Kbps
Writing application : TMPGEnc Video Mastering Works 5 Version. 5.0.6.38
Writing library : TMPGEnc Video Mastering Works 5 Version. 5.0.6.38
Video
ID : 0
Format : MPEG-4 Visual
Format profile : Advanced Simple@L5
Format settings, BVOP : 2
Format settings, QPel : No
Format settings, GMC : No warppoints
Format settings, Matrix : Default (H.263)
Muxing mode : Packed bitstream
Codec ID : XVID
Codec ID/Hint : XviD
Duration : 43mn 59s
Bit rate : 1 798 Kbps
Width : 720 pixels
Height : 400 pixels
Display aspect ratio : 16:9
Frame rate : 25.000 fps
Color space : YUV
Chroma subsampling : 4:2:0
Bit depth : 8 bits
Scan type : Progressive
Compression mode : Lossy
Bits/(Pixel*Frame) : 0.255
Stream size : 566 MiB (90%)
Writing library : XviD 73
Audio
ID : 1
Format : AC-3
Format/Info : Audio Coding 3
Mode extension : CM (complete main)
Format settings, Endianness : Big
Codec ID : 2000
Duration : 43mn 59s
Bit rate mode : Constant
Bit rate : 192 Kbps
Channel(s) : 2 channels
Channel positions : Front: L R
Sampling rate : 48.0 KHz
Bit depth : 16 bits
Compression mode : Lossy
Stream size : 60.4 MiB (10%)
Alignment : Aligned on interleaves
Interleave, duration : 240 ms (6.00 video frames)
Interleave, preload duration : 224 ms
Viasat History: Запретная история / Forbidden History [сезон 1]
Viasat History: Запретная история / Forbidden History [сезон 2]
Viasat History: Запретная история / Forbidden History [сезон 3]

[Профиль] [ЛС]

Таисия

Стаж: 1 год 8 месяцев

Сообщений: 37



Награды: 1 (Подробнее)

Girls (Количество: 1)
Торрент-статистика

Создавать темы 28-Янв-2016 20:57 (спустя 12 часов)

[Цитировать]

ВАУ !!!! СПАСИБО, Скорпион ,,,,
[Профиль] [ЛС]

KiruhaDelMar

Стаж: 1 год 8 месяцев

Сообщений: 247



Награды: Нет

Торрент-статистика

Создавать темы 30-Янв-2016 06:06 (спустя 1 день 9 часов)

[Цитировать]

А че тут вав, старье с того века, его даже мои тараканы смотрели , если б хотя бы HD
[Профиль] [ЛС]

KiruhaDelMar

Стаж: 1 год 8 месяцев

Сообщений: 247



Награды: Нет

Торрент-статистика

Создавать темы 30-Янв-2016 06:06 (спустя 23 секунды)

[Цитировать]

Шапку сними, новый год прошел давно
[Профиль] [ЛС]
Кто просматривает тему:

Форум Тема Автор Размер
Viasat History Viasat History: BBC: Железные дороги в годы Первой мировой войны / Michael Portillo's Railways of the Great War [серии 1-5 из 5] (Tom Richardson) [2014 г., Документальный, история, HDTVRip 720p] skorpionN 3.72 GB
Viasat History Viasat History: BBC: Отчаянные дегустаторы отправляются / The Supersizers Go... [1 сезон 7 (7) 2 сезон 6 (7)] (Tом Ковени, Нил Фергюсон) [2008-2009 г., Реалити-шоу, SATRip] skorpionN 10.72 GB
Viasat History Viasat History: Американские принцессы на миллион долларов / Million Dollar American Princesses [сезон 2 серии 1-4 из 4] (Ian Lilley) [2015 г., Документальный, игровой, биографический, история,... skorpionN 2.58 GB
Viasat History Viasat History: Ватикан и Третий Рейх / The Vatican and the Third Reich (Rufo Pajares) [2014 г., Документальный, история, SATRip] skorpionN 750 MB
Viasat History Viasat History: Величайшие секреты Библии / Secrets of the Bible [серии 1-13 из 13] (Tim Gaunt) [2015 г., Документально-постановочный, история, SATRip] skorpionN 9.07 GB
Viasat History Viasat History: Викинги / Vikings [серии 1-5 из 5] (Paul Russell and Andrea Vogt) [2014 г., Документально-постановочный, история, исследования, SATRip] skorpionN 3.15 GB
Viasat History Viasat History: Восточная Пруссия Гитлера / Hitler's East Prussia [серии 1-2 из 2] (Florian Huber) [2008 г., Документальный, история, SATRip] skorpionN 1.19 GB
Viasat History Viasat History: Гинденбург: Титаник небес / Hindenburg: Titanic of the Skies (Шон Гранди / Sean Grundy) [2007 г., Документально- постановочный, драма, SATRip] skorpionN 1.24 GB
Показать сообщения:    

Текущее время: Сегодня 05:17

Часовой пояс: GMT



Вы не можете начинать темы
Вы не можете отвечать на сообщения
Вы не можете редактировать свои сообщения
Вы не можете удалять свои сообщения
Вы не можете голосовать в опросах
Вы не можете прикреплять файлы к сообщениям
Вы не можете скачивать файлы