Viasat History: Женщины-самураи / Samurai Warrior Queens (Jon Wate) [2015 г., Документальный, история, реконструкция, SATRip]

 
Автор Сообщение

skorpionN ®

Пол:

Стаж: 1 год 8 месяцев

Сообщений: 578



Награды: 4 (Подробнее)

Mega Seeder 3 (Количество: 1) Mega Seeder 1 (Количество: 1) Mega Seeder 2 (Количество: 1)
Торрент-статистика

Создавать темы 17-Июн-2015 21:56

[Цитировать]

Viasat History: Женщины-самураи / Samurai Warrior Queens
Год выпуска: 2015
Страна: Великобритания, Urban Canyons Ltd
Жанр: Документальный, история, реконструкция
Продолжительность: 00:42:38
Перевод: Профессиональный (одноголосый)
Режиссер: Jon Wate
Описание: Во всех историях, которые нам известны о самураях, упоминаются лишь мужчины, однако на протяжении 8 веков женщины сражались бок о бок с мужчинами. Результаты научных исследований, которые проводились в местах сражений в Японии, показывают, что 30% найденных останков воинов принадлежат женщинам, что доказывает существование женщин-самураев, о посвящении которых мало что известно миру. Британские и японские ученые, а также представительницы современных боевых искусств расскажут удивительную историю о храбрых и воинственных женщинах, которые по своим навыкам не уступали мужчинам.
Доп. информация: "SDI Media" перевод Геннадия Максимова, текст читает Роман Антанович
Качество: SATRip
Формат: AVI
Видео кодек: XviD
Аудио кодек: AC3
Видео: 704x400 25fps 1800kbps
Аудио: AC3, 2 ch, 192kbps

Скриншоты


MediaInfo:

Format : AVI
Format/Info : Audio Video Interleave
File size : 747 MiB
Duration : 49mn 47s
Overall bit rate : 2 097 Kbps
Writing application : TMPGEnc Video Mastering Works 5 Version. 5.0.6.38
Writing library : TMPGEnc Video Mastering Works 5 Version. 5.0.6.38
Video
ID : 0
Format : MPEG-4 Visual
Format profile : Advanced Simple@L5
Format settings, BVOP : 2
Format settings, QPel : No
Format settings, GMC : No warppoints
Format settings, Matrix : Default (H.263)
Muxing mode : Packed bitstream
Codec ID : XVID
Codec ID/Hint : XviD
Duration : 49mn 47s
Bit rate : 1 897 Kbps
Width : 704 pixels
Height : 400 pixels
Display aspect ratio : 16:9
Frame rate : 25.000 fps
Color space : YUV
Chroma subsampling : 4:2:0
Bit depth : 8 bits
Scan type : Progressive
Compression mode : Lossy
Bits/(Pixel*Frame) : 0.269
Stream size : 676 MiB (90%)
Writing library : XviD 73
Audio
ID : 1
Format : AC-3
Format/Info : Audio Coding 3
Mode extension : CM (complete main)
Format settings, Endianness : Big
Codec ID : 2000
Duration : 49mn 47s
Bit rate mode : Constant
Bit rate : 192 Kbps
Channel(s) : 2 channels
Channel positions : Front: L R
Sampling rate : 48.0 KHz
Compression mode : Lossy
Stream size : 68.4 MiB (9%)
Alignment : Aligned on interleaves
Interleave, duration : 240 ms (6.00 video frames)
Interleave, preload duration : 224 ms
[Профиль] [ЛС]
Кто просматривает тему:

Форум Тема Автор Размер
Viasat History Viasat History: BBC: Железные дороги в годы Первой мировой войны / Michael Portillo's Railways of the Great War [серии 1-5 из 5] (Tom Richardson) [2014 г., Документальный, история, HDTVRip 720p] skorpionN 3.72 GB
Viasat History Viasat History: BBC: Отчаянные дегустаторы отправляются / The Supersizers Go... [1 сезон 7 (7) 2 сезон 6 (7)] (Tом Ковени, Нил Фергюсон) [2008-2009 г., Реалити-шоу, SATRip] skorpionN 10.72 GB
Viasat History Viasat History: Американские принцессы на миллион долларов / Million Dollar American Princesses [сезон 2 серии 1-3 из 4] (Ian Lilley) [2015 г., Документальный, игровой, биографический, история,... skorpionN 1.94 GB
Viasat History Viasat History: Ватикан и Третий Рейх / The Vatican and the Third Reich (Rufo Pajares) [2014 г., Документальный, история, SATRip] skorpionN 750 MB
Viasat History Viasat History: Величайшие секреты Библии / Secrets of the Bible [серии 1-13 из 13] (Tim Gaunt) [2015 г., Документально-постановочный, история, SATRip] skorpionN 9.07 GB
Viasat History Viasat History: Викинги / Vikings [серии 1-5 из 5] (Paul Russell and Andrea Vogt) [2014 г., Документально-постановочный, история, исследования, SATRip] skorpionN 3.15 GB
Viasat History Viasat History: Восточная Пруссия Гитлера / Hitler's East Prussia [серии 1-2 из 2] (Florian Huber) [2008 г., Документальный, история, SATRip] skorpionN 1.19 GB
Viasat History Viasat History: Гинденбург: Титаник небес / Hindenburg: Titanic of the Skies (Шон Гранди / Sean Grundy) [2007 г., Документально- постановочный, драма, SATRip] skorpionN 1.24 GB
Показать сообщения:    

Текущее время: Сегодня 00:34

Часовой пояс: GMT



Вы не можете начинать темы
Вы не можете отвечать на сообщения
Вы не можете редактировать свои сообщения
Вы не можете удалять свои сообщения
Вы не можете голосовать в опросах
Вы не можете прикреплять файлы к сообщениям
Вы не можете скачивать файлы