Viasat History: Женщины-викинги / Die Frauen der Wikinger (Viking Women) [сезон 1 серии 1-2 из2] (Йоав Пэриш / Yoav Parish, Юдит Фёлькер / Judith Voelker, Kai Christiansen) [2014 г., Документально-игровой, исторический, SATRip]

 
Автор Сообщение

skorpionN ®

Пол:

Стаж: 1 год 8 месяцев

Сообщений: 591



Награды: 4 (Подробнее)

Mega Seeder 3 (Количество: 1) Top Releaser 2 (Количество: 1) Mega Seeder 1 (Количество: 1)
Торрент-статистика

Создавать темы 31-Авг-2016 17:14

[Цитировать]

Viasat History: Женщины-викинги / Die Frauen der Wikinger (Viking Women) [сезон 1 серии 1-2 из2]
Год выпуска: 2014
Страна: Германия, Франция, NDR / ARTE
Жанр: Документально-игровой, драма, история
Продолжительность: 2x~00:52:00
Перевод: Профессиональный (двухголосый), переведено и озвучено на студии "SDI Media", перевод Сергея Антонова, текст читают Олеся Шалецкая и Михаил Карасиков
Режиссер: Йоав Пэриш / Yoav Parish, Юдит Фёлькер / Judith Voelker, Kai Christiansen
В ролях:
01. Sigruns Flucht nach Island
SIGRUN - Esther Schweins, ULF - Luca Maric, GRIM - Michael Pink, THORULF - Valter Skarsgård, STENAR - Torsten Münchow
02. Jovas Erbe und der Untergang Haithabus
JOVA - Leonie Benesch, TYRA - Annette Lober, BJÖRN - Jakob Benkhofer, RAGNAR - Reiner Schöne, OT TAR - Fritz Roth
Описание: Викинги навсегда изменили Европу, хотя о женщинах-викингах вы едва ли сможете найти упоминания в истории. Что совершенно несправедливо, т.к. они сыграли немаловажную роль в мире викингов: они командовали кораблями, основывали колонии, сражались и вели переговоры с императорами. Следы их походов можно найти от Америки до Киева, и без их биографии эра викингов остаётся неполной. Благодаря эксклюзивным интервью с экспертами со всего мира, последним научным находкам и детальным реконструкциям, вы сможете углубиться в мир викингов и узнать много нового об этой давно прошедшей эре.
Список серий:
01. Гнев Сигрун и открытие Исландии / Sigruns Flucht nach Island
Эта вдохновляющая история о Сигрун, которую ребёнком похитили из дому. Чтобы сбежать от мужа, она построила корабль и отправилась в экспедицию, где наткнулась на неизвестный остров
02. Наследие Йовы и падение Хедебю / Jovas Erbe und der Untergang Haithabus
Эта захватывающая история о Йове, которая в 1064 году отправилась в Данию на поиски своего пропавшего отца. Также мы узнаем о постоянно меняющемся мире викингов.
Доп. информация:
https://www.ndr.de/der_ndr/presse/mappen/frauenderwikinger100.pdf
Качество: SATRip
Формат: AVI
Видео кодек: XviD
Аудио кодек: AC3
Видео: 704x400 25.00 fps 1800 kbps
Аудио: AC3 2ch, 48kHz, 192 kbps

Скриншоты


MediaInfo:

Format : AVI
Format/Info : Audio Video Interleave
File size : 743 MiB
Duration : 51 min
Overall bit rate : 1 998 kb/s
Writing application : TMPGEnc Video Mastering Works 6 Trial with Movie Plug-in Version. 6.1.5.26
Writing library : TMPGEnc Video Mastering Works 6 Trial with Movie Plug-in Version. 6.1.5.26
Video
ID : 0
Format : MPEG-4 Visual
Format profile : Advanced Simple@L5
Format settings, BVOP : 2
Format settings, QPel : No
Format settings, GMC : No warppoints
Format settings, Matrix : Default (H.263)
Muxing mode : Packed bitstream
Codec ID : XVID
Codec ID/Hint : XviD
Duration : 51 min
Bit rate : 1 799 kb/s
Width : 704 pixels
Height : 400 pixels
Display aspect ratio : 16:9
Frame rate : 25.000 FPS
Color space : YUV
Chroma subsampling : 4:2:0
Bit depth : 8 bits
Scan type : Progressive
Compression mode : Lossy
Bits/(Pixel*Frame) : 0.255
Stream size : 669 MiB (90%)
Writing library : XviD 73
Audio
ID : 1
Format : AC-3
Format/Info : Audio Coding 3
Mode extension : CM (complete main)
Format settings, Endianness : Big
Codec ID : 2000
Duration : 51 min
Bit rate mode : Constant
Bit rate : 192 kb/s
Channel(s) : 2 channels
Channel positions : Front: L R
Sampling rate : 48.0 kHz
Frame rate : 31.250 FPS (1536 spf)
Compression mode : Lossy
Stream size : 71.4 MiB (10%)
Alignment : Aligned on interleaves
Interleave, duration : 333 ms (8.33 video frames)

Внимание:

Раздача ведётся путём добавления новых серий; при каждом добавлении создаётся новый торрент. Чтобы начать докачку новой серии, пользователям необходимо сделать следующее:
- Остановить скачивание.
- Удалить старый торрент у себя из клиента (старые серии удалять не надо).
- Скачать новый торрент и запустить его у себя в клиенте вместо старого, при этом указать клиенту путь в старую папку куда и должно происходить скачивание новых серий.
Добавлено
02. Наследие Йовы и падение Хедебю / Jovas Erbe und der Untergang Haithabus
[Профиль] [ЛС]
Кто просматривает тему:

Форум Тема Автор Размер
Viasat History Viasat History: BBC: Железные дороги в годы Первой мировой войны / Michael Portillo's Railways of the Great War [серии 1-5 из 5] (Tom Richardson) [2014 г., Документальный, история, HDTVRip 720p] skorpionN 3.72 GB
Viasat History Viasat History: BBC: Отчаянные дегустаторы отправляются / The Supersizers Go... [1 сезон 7 (7) 2 сезон 6 (7)] (Tом Ковени, Нил Фергюсон) [2008-2009 г., Реалити-шоу, SATRip] skorpionN 10.72 GB
Viasat History Viasat History: Американские принцессы на миллион долларов / Million Dollar American Princesses [сезон 2 серии 1-4 из 4] (Ian Lilley) [2015 г., Документальный, игровой, биографический, история,... skorpionN 2.58 GB
Viasat History Viasat History: Ватикан и Третий Рейх / The Vatican and the Third Reich (Rufo Pajares) [2014 г., Документальный, история, SATRip] skorpionN 750 MB
Viasat History Viasat History: Величайшие секреты Библии / Secrets of the Bible [серии 1-13 из 13] (Tim Gaunt) [2015 г., Документально-постановочный, история, SATRip] skorpionN 9.07 GB
Viasat History Viasat History: Викинги / Vikings [серии 1-5 из 5] (Paul Russell and Andrea Vogt) [2014 г., Документально-постановочный, история, исследования, SATRip] skorpionN 3.15 GB
Viasat History Viasat History: Восточная Пруссия Гитлера / Hitler's East Prussia [серии 1-2 из 2] (Florian Huber) [2008 г., Документальный, история, SATRip] skorpionN 1.19 GB
Viasat History Viasat History: Гинденбург: Титаник небес / Hindenburg: Titanic of the Skies (Шон Гранди / Sean Grundy) [2007 г., Документально- постановочный, драма, SATRip] skorpionN 1.24 GB
Показать сообщения:    

Текущее время: Сегодня 05:17

Часовой пояс: GMT



Вы не можете начинать темы
Вы не можете отвечать на сообщения
Вы не можете редактировать свои сообщения
Вы не можете удалять свои сообщения
Вы не можете голосовать в опросах
Вы не можете прикреплять файлы к сообщениям
Вы не можете скачивать файлы