Viasat History: ДНК мертвых знаменитостей / Dead Famous DNA [сезон 1 серии 1-3 из 3] (Rob Davis) [2014 г., Документальный, история, исследования, DVB]

 
Автор Сообщение

skorpionN ®

Пол:

Стаж: 2 года 5 месяцев

Сообщений: 777



Награды: 4 (Подробнее)

Top Releaser 2 (Количество: 1) Mega Seeder 3 (Количество: 1) Mega Seeder 1 (Количество: 1)
Торрент-статистика

Создавать темы 11-Авг-2017 12:25

[Цитировать]

Viasat History: ДНК мертвых знаменитостей / Dead Famous DNA [сезон 1 серии 1-3 из 3]
Год выпуска: 2014
Страна: Великобритания, Double Act Productions
Жанр: Документальный, история, исследования
Продолжительность: 3x~00:47:00
Перевод: Профессиональный (одноголосый), переведено и озвучено на студии "SDI Media", перевод Анны Заславской, текст читает Владислав Букин
Режиссер: Rob Davis
В ролях: Mark Evans, David Irving, Joni Mabe
Описание: Вместе с Марком Эвансом мы попытаемся добыть и изучить ДНК из останков как можно большего количества знаменитых личностей. Нам предстоит узнать кем были эти люди на самом деле. Нам предстоит расшифровать генетический код этих людей.
Список серий / эпизодов:
01. Эпизод 1
Марк Эванс узнает, что Элвис Пресли, возможно, страдал от генетического заболевания сердца, известного как гипертрофическая кардиомиопатия, которое могло стать причиной его ранней трагической смерти.
02. Эпизод 2
Марк Эванс пытается изучать Джона Ф. Кеннеди и Мэрилин Монро по образцам их волос. Также он отправляется в Нью-Джерси, чтобы своими глазами взглянуть на пенис Наполеона!
03. Эпизод 3
Марк Эванс идет по следу реликвий, якобы принадлежавших Адольфу Гитлеру и Еве Браун: от костей, которые продал перебежчик из КГБ, до волос, найденных на расческе в горном убежище фюрера.
Качество: DVB
Формат: MPEG -TS
Видео кодек: MPEG2
Аудио кодек: MPEG Audio
Видео: 720х576 (16:9) анаморфный (1024x576) 25fps ~2335 Kbps
Аудио 1: (Rus) MP2 2ch, 48kHz, 192 kbps
Аудио 2: (En) MP2 2ch, 48kHz, 192 kbps

Скриншоты


MediaInfo:

Format : MPEG-TS
File size : 953 MiB
Duration : 46 min 32 s
Overall bit rate mode : Variable
Overall bit rate : 2 864 kb/s
Video
ID : 206 (0xCE)
Menu ID : 19106 (0x4AA2)
Format : MPEG Video
Format version : Version 2
Format profile : Main@Main
Format settings, BVOP : Yes
Format settings, Matrix : Custom
Format settings, GOP : M=3, N=15
Format settings, picture struc : Frame
Codec ID : 2
Duration : 46 min 32 s
Bit rate mode : Variable
Bit rate : 2 335 kb/s
Maximum bit rate : 9 800 kb/s
Width : 720 pixels
Height : 576 pixels
Display aspect ratio : 16:9
Frame rate : 25.000 FPS
Standard : PAL
Color space : YUV
Chroma subsampling : 4:2:0
Bit depth : 8 bits
Scan type : Interlaced
Scan order : Top Field First
Compression mode : Lossy
Bits/(Pixel*Frame) : 0.225
Time code of first frame : 00:00:00:00
Time code source : Group of pictures header
GOP, Open/Closed : Open
GOP, Open/Closed of first fram : Closed
Stream size : 777 MiB (82%)
Audio #1
ID : 306 (0x132)
Menu ID : 19106 (0x4AA2)
Format : MPEG Audio
Format version : Version 1
Format profile : Layer 2
Codec ID : 3
Duration : 46 min 32 s
Bit rate mode : Constant
Bit rate : 192 kb/s
Channel(s) : 2 channels
Sampling rate : 48.0 kHz
Compression mode : Lossy
Stream size : 63.9 MiB (7%)
Language : Russian
Audio #2
ID : 307 (0x133)
Menu ID : 19106 (0x4AA2)
Format : MPEG Audio
Format version : Version 1
Format profile : Layer 2
Codec ID : 3
Duration : 46 min 32 s
Bit rate mode : Constant
Bit rate : 192 kb/s
Channel(s) : 2 channels
Sampling rate : 48.0 kHz
Compression mode : Lossy
Stream size : 63.9 MiB (7%)
Language : English

Внимание:

Раздача ведётся путём добавления новых серий; при каждом добавлении создаётся новый торрент. Чтобы начать докачку новой серии, пользователям необходимо сделать следующее:
- Остановить скачивание.
- Удалить старый торрент у себя из клиента (старые серии удалять не надо).
- Скачать новый торрент и запустить его у себя в клиенте вместо старого, при этом указать клиенту путь в старую папку куда и должно происходить скачивание новых серий.
Добавлено:
Эпизод 3
[Профиль] [ЛС]
Кто просматривает тему:

Форум Тема Автор Размер
BBC BBC: Viasat History. Бразды правления. Балет на лошади / Lucy Worsley's Reins of Power: The Art of Horse Dancing (Nick Gillam-Smith) [2015 г., Документальный, история, HDTV 720p] skorpionN 3.04 GB
Viasat History Viasat History: BBC: Железные дороги в годы Первой мировой войны / Michael Portillo's Railways of the Great War [серии 1-5 из 5] (Tom Richardson) [2014 г., Документальный, история, HDTVRip 720p] skorpionN 3.72 GB
Viasat History Viasat History: BBC: Отчаянные дегустаторы отправляются / The Supersizers Go... [1 сезон 7 (7) 2 сезон 6 (7)] (Tом Ковени, Нил Фергюсон) [2008-2009 г., Реалити-шоу, SATRip] skorpionN 10.72 GB
Viasat History Viasat History: Американские принцессы на миллион долларов / Million Dollar American Princesses [сезоны 1-2 серии 1-7 из 7] (Ian Lilley) [2015-2016 г., Документальный, игровой, биографи... skorpionN 4.51 GB
Viasat History Viasat History: Ватикан и Третий Рейх / The Vatican and the Third Reich (Rufo Pajares) [2014 г., Документальный, история, SATRip] skorpionN 750 MB
Viasat History Viasat History: Величайшие секреты Библии / Secrets of the Bible [серии 1-13 из 13] (Tim Gaunt) [2015 г., Документально-постановочный, история, SATRip] skorpionN 9.07 GB
Viasat History Viasat History: Викинги / Vikings [серии 1-5 из 5] (Paul Russell and Andrea Vogt) [2014 г., Документально-постановочный, история, исследования, SATRip] skorpionN 3.15 GB
Viasat History Viasat History: Восточная Пруссия Гитлера / Hitler's East Prussia [серии 1-2 из 2] (Florian Huber) [2008 г., Документальный, история, SATRip] skorpionN 1.19 GB
Показать сообщения:    

Текущее время: Сегодня 17:33

Часовой пояс: GMT



Вы не можете начинать темы
Вы не можете отвечать на сообщения
Вы не можете редактировать свои сообщения
Вы не можете удалять свои сообщения
Вы не можете голосовать в опросах
Вы не можете прикреплять файлы к сообщениям
Вы не можете скачивать файлы