Viasat History: Гинденбург: Титаник небес / Hindenburg: Titanic of the Skies (Шон Гранди / Sean Grundy) [2007 г., Документально- постановочный, драма, SATRip]

 
Author Message

skorpionN ®

Gender:

Longevity: 5 years

Posts: 944



: 4 ()

Mega Seeder 1 (1) Top Releaser 2 (1) Mega Seeder 2 (1)
Торрент-статистика

Post 29-Mar-2016 09:29

[Quote]

Viasat History: Гинденбург: Титаник небес / Hindenburg: Titanic of the Skies
Год выпуска: 2007
Страна: Великобритания, Pioneer Productions, Channel 4, Zweites Deutsches Fernsehen (ZDF)
Жанр: Документально- постановочный, драма
Продолжительность: 01:28:36
Перевод: Профессиональный (одноголосый), переведено и озвучено на студии "SDI Media", перевод Н. Сергеевой, текст читает Михаил Карасиков
Режиссер: Шон Гранди / Sean Grundy
В ролях: Джон Шрэпнел, Малкольм Тирни, Марк МакГэнн, Герард Монако, Саймон Лоу, Майкл Прейд, Селия Баннерман, Торстон Мандерлей, Альберт Веллинг, Лорелей Кинг
Доп. информация:
Сценарий: Тони Малхолланд
Продюсер: Вики Мэтьюз, Стюарт Картер, Мацей Скалски
Оператор: Дэвид Ланган
Композитор: Эндрю Хьюит
Художник: Эва Скочковска
Монтаж: Мартин Сванн
Описание: 6 мая 1937 г. Гигантский немецкий дирижабль "Гинденбург" приближается к Нью-Йорку, а значит, его трансатлантическое путешествие подходит к концу. Но внезапная трагедия обрывает это увлекательное путешествие. Шедевр и гордость немецкой воздушной техники взрывается во время попытки пришвартоваться. Хватило нескольких секунд, чтобы огромную махину поглотил огонь. После путешествия в роскошных условиях перед командой и пассажирами предстал выбор: прыгнуть с почти стометровой высоты, спасаясь из обречённого дирижабля, либо сгореть в адском пламени. Гинденбургская трагедия сравни катастрофе на "Титанике". До этого ужасного происшествия за дирижаблями видели будущее комфортных воздушных путешествий, но вместе со смертью людей погибла и эта идея.
Качество: SATRip
Формат: AVI
Видео кодек: XviD
Аудио кодек: AC3
Видео: 704x400 25fps 1800 kbps
Аудио: AC3 2ch, 48kHz, 192 kbps

Скриншоты


MediaInfo:

Format : AVI
Format/Info : Audio Video Interleave
File size : 1.24 GiB
Duration : 1h 28mn
Overall bit rate : 1 997 Kbps
Writing application : TMPGEnc Video Mastering Works 5 Version. 5.0.6.38
Writing library : TMPGEnc Video Mastering Works 5 Version. 5.0.6.38
Video
ID : 0
Format : MPEG-4 Visual
Format profile : Advanced Simple@L5
Format settings, BVOP : 2
Format settings, QPel : No
Format settings, GMC : No warppoints
Format settings, Matrix : Default (H.263)
Muxing mode : Packed bitstream
Codec ID : XVID
Codec ID/Hint : XviD
Duration : 1h 28mn
Bit rate : 1 798 Kbps
Width : 704 pixels
Height : 400 pixels
Display aspect ratio : 16:9
Frame rate : 25.000 fps
Color space : YUV
Chroma subsampling : 4:2:0
Bit depth : 8 bits
Scan type : Progressive
Compression mode : Lossy
Bits/(Pixel*Frame) : 0.255
Stream size : 1.11 GiB (90%)
Writing library : XviD 73
Audio
ID : 1
Format : AC-3
Format/Info : Audio Coding 3
Mode extension : CM (complete main)
Format settings, Endianness : Big
Codec ID : 2000
Duration : 1h 28mn
Bit rate mode : Constant
Bit rate : 192 Kbps
Channel(s) : 2 channels
Channel positions : Front: L R
Sampling rate : 48.0 KHz
Bit depth : 16 bits
Compression mode : Lossy
Stream size : 122 MiB (10%)
Alignment : Aligned on interleaves
Interleave, duration : 240 ms (6.00 video frames)
Interleave, preload duration : 224 ms
[Profile] [PM]
Кто просматривает тему:

Forum Topic Author Size
BBC BBC: Viasat History. Бразды правления. Балет на лошади / Lucy Worsley's Reins of Power: The Art of Horse Dancing (Nick Gillam-Smith) [2015 г., Документальный, история, HDTV 720p] skorpionN 3.04 GB
Viasat History Viasat History: BBC: Железные дороги в годы Первой мировой войны / Michael Portillo's Railways of the Great War [серии 1-5 из 5] (Tom Richardson) [2014 г., Документальный, история, HDTVRip 720p] skorpionN 3.72 GB
Viasat History Viasat History: BBC: Отчаянные дегустаторы отправляются / The Supersizers Go... [1 сезон 7 (7) 2 сезон 6 (7)] (Tом Ковени, Нил Фергюсон) [2008-2009 г., Реалити-шоу, SATRip] skorpionN 10.72 GB
Viasat History Viasat History: Американские принцессы на миллион долларов / Million Dollar American Princesses [сезоны 1-2 серии 1-7 из 7] (Ian Lilley) [2015-2016 г., Документальный, игровой, биографи... skorpionN 4.51 GB
Viasat History Viasat History: Ватикан и Третий Рейх / The Vatican and the Third Reich (Rufo Pajares) [2014 г., Документальный, история, SATRip] skorpionN 750 MB
Viasat History Viasat History: Величайшие секреты Библии / Secrets of the Bible [серии 1-13 из 13] (Tim Gaunt) [2015 г., Документально-постановочный, история, SATRip] skorpionN 9.07 GB
Viasat History Viasat History: Викинги / Vikings [серии 1-5 из 5] (Paul Russell and Andrea Vogt) [2014 г., Документально-постановочный, история, исследования, SATRip] skorpionN 3.15 GB
Viasat History Viasat History: Восточная Пруссия Гитлера / Hitler's East Prussia [серии 1-2 из 2] (Florian Huber) [2008 г., Документальный, история, SATRip] skorpionN 1.19 GB
Display posts from previous:    

The time now is: Today 17:08

All times are GMT



You cannot post new topics in this forum
You cannot reply to topics in this forum
You cannot edit your posts in this forum
You cannot delete your posts in this forum
You cannot vote in polls in this forum
You cannot attach files in this forum
You cannot download files in this forum