Viasat History: Генрих и Анна: Любовники, изменившие историю / Henry and Anne The Lovers Who Changed History [серии 1-2 из 2] [2014 г., Документальный, история, исследования, DVB]

 
Автор Сообщение

skorpionN ®

Пол:

Стаж: 2 года 8 месяцев

Сообщений: 878



Награды: 4 (Подробнее)

Mega Seeder 1 (Количество: 1) Top Releaser 2 (Количество: 1) Mega Seeder 3 (Количество: 1)
Торрент-статистика

Создавать темы 13-Авг-2017 15:58

[Цитировать]

Viasat History: Генрих и Анна: Любовники, изменившие историю / Henry and Anne The Lovers Who Changed History [серии 1-2 из 2]
Год выпуска: 2014
Страна: Великобритания, Lion Television, All 3 Media
Жанр: Документальный, история, исследования
Продолжительность: 2x~00:45:18
Перевод: Профессиональный (одноголосый), переведено и озвучено на студии "SDI Media", перевод Елизаветы Неймышевой, текст читает Юлия Черкасова
В ролях: ведущая - историк Сюзанна Липском
Emma Connell - Anne Boleyn
Jack Hawkins - Henry VIII
Jon Edgley-Bond - Henry Norris
Fleur Keith - Jane Seymour
Описание: Подлинная жизнь Генриха VIII и Анны Болейн почти не видна за историческими мифами, романтическими легендами и полуправдой. Известно, что ради Анны английский король разорвал отношения с Римом и ради нее же он лично пригласил из Франции искусного палача, способного отрубить голову с одного удара. В документальном расследовании историк Сюзанна Липском пытается разобраться, как началась история любви Генриха и Анны и почему она закончилась столь трагически и кроваво вскоре после заключения брака, которого оба так долго ждали.
Качество: DVB
Формат: MPEG
Видео кодек: MPEG2
Аудио кодек: MPEG Audio
Видео: 720х576 (16:9) анаморфной (1024x576) 25fps ~1965Kbps
Аудио 1: (Rus) MPEG Audio 2ch, 48kHz, 192 kbps
Аудио 2: (En) MPEG Audio 2ch, 48kHz, 192 kbps

Скриншоты


MediaInfo:

Format : MPEG-TS
File size : 802 MiB
Duration : 45 min 18 s
Overall bit rate mode : Variable
Overall bit rate : 2 476 kb/s
Video
ID : 206 (0xCE)
Menu ID : 19106 (0x4AA2)
Format : MPEG Video
Format version : Version 2
Format profile : Main@Main
Format settings, BVOP : Yes
Format settings, Matrix : Custom
Format settings, GOP : M=3, N=15
Format settings, picture struc : Frame
Codec ID : 2
Duration : 45 min 18 s
Bit rate mode : Variable
Bit rate : 1 965 kb/s
Maximum bit rate : 9 800 kb/s
Width : 720 pixels
Height : 576 pixels
Display aspect ratio : 16:9
Frame rate : 25.000 FPS
Standard : PAL
Color space : YUV
Chroma subsampling : 4:2:0
Bit depth : 8 bits
Scan type : Interlaced
Scan order : Top Field First
Compression mode : Lossy
Bits/(Pixel*Frame) : 0.190
Time code of first frame : 00:00:00:00
Time code source : Group of pictures header
GOP, Open/Closed : Open
GOP, Open/Closed of first fram : Closed
Stream size : 637 MiB (79%)
Audio #1
ID : 306 (0x132)
Menu ID : 19106 (0x4AA2)
Format : MPEG Audio
Format version : Version 1
Format profile : Layer 2
Codec ID : 3
Duration : 45 min 18 s
Bit rate mode : Constant
Bit rate : 192 kb/s
Channel(s) : 2 channels
Sampling rate : 48.0 kHz
Compression mode : Lossy
Stream size : 62.2 MiB (8%)
Language : Russian
Audio #2
ID : 307 (0x133)
Menu ID : 19106 (0x4AA2)
Format : MPEG Audio
Format version : Version 1
Format profile : Layer 2
Codec ID : 3
Duration : 45 min 18 s
Bit rate mode : Constant
Bit rate : 192 kb/s
Channel(s) : 2 channels
Sampling rate : 48.0 kHz
Compression mode : Lossy
Stream size : 62.2 MiB (8%)
Language : English
[Профиль] [ЛС]
Кто просматривает тему:

Форум Тема Автор Размер
BBC BBC: Viasat History. Бразды правления. Балет на лошади / Lucy Worsley's Reins of Power: The Art of Horse Dancing (Nick Gillam-Smith) [2015 г., Документальный, история, HDTV 720p] skorpionN 3.04 GB
Viasat History Viasat History: BBC: Железные дороги в годы Первой мировой войны / Michael Portillo's Railways of the Great War [серии 1-5 из 5] (Tom Richardson) [2014 г., Документальный, история, HDTVRip 720p] skorpionN 3.72 GB
Viasat History Viasat History: BBC: Отчаянные дегустаторы отправляются / The Supersizers Go... [1 сезон 7 (7) 2 сезон 6 (7)] (Tом Ковени, Нил Фергюсон) [2008-2009 г., Реалити-шоу, SATRip] skorpionN 10.72 GB
Viasat History Viasat History: Американские принцессы на миллион долларов / Million Dollar American Princesses [сезоны 1-2 серии 1-7 из 7] (Ian Lilley) [2015-2016 г., Документальный, игровой, биографи... skorpionN 4.51 GB
Viasat History Viasat History: Ватикан и Третий Рейх / The Vatican and the Third Reich (Rufo Pajares) [2014 г., Документальный, история, SATRip] skorpionN 750 MB
Viasat History Viasat History: Величайшие секреты Библии / Secrets of the Bible [серии 1-13 из 13] (Tim Gaunt) [2015 г., Документально-постановочный, история, SATRip] skorpionN 9.07 GB
Viasat History Viasat History: Викинги / Vikings [серии 1-5 из 5] (Paul Russell and Andrea Vogt) [2014 г., Документально-постановочный, история, исследования, SATRip] skorpionN 3.15 GB
Viasat History Viasat History: Восточная Пруссия Гитлера / Hitler's East Prussia [серии 1-2 из 2] (Florian Huber) [2008 г., Документальный, история, SATRip] skorpionN 1.19 GB
Показать сообщения:    

Текущее время: Сегодня 17:38

Часовой пояс: GMT



Вы не можете начинать темы
Вы не можете отвечать на сообщения
Вы не можете редактировать свои сообщения
Вы не можете удалять свои сообщения
Вы не можете голосовать в опросах
Вы не можете прикреплять файлы к сообщениям
Вы не можете скачивать файлы