Viasat History: Восточная Пруссия Гитлера / Hitler's East Prussia [серии 1-2 из 2] (Florian Huber) [2008 г., Документальный, история, SATRip]

 
Author Message

skorpionN ®

Gender:

Longevity: 5 years 3 months

Posts: 944



: 4 ()

Top Releaser 2 (1) Mega Seeder 3 (1) Mega Seeder 1 (1)
Торрент-статистика

Post 29-Nov-2015 08:34

[Quote]

Viasat History: Восточная Пруссия Гитлера / Hitler's East Prussia [серии 1-2 из 2]
Год выпуска: 2008
Страна: Германия, LOOKS Film & TV GmbH
Жанр: Документальный, история
Продолжительность: 2x~00:42:50
Перевод: Профессиональный (одноголосый)
Режиссер: Florian Huber
Описание: Восточная Пруссия – провинция, которая располагалась вдоль юго-восточного берега Балтики, была известна своим благородством и величием. Однако вскоре ее столица Кёнигсберг, будучи духовным центром, направляет свой взор в сторону нового пророка – Адольфа Гитлера. Национальный социализм захватывает Восточную Пруссию, в результате чего доведенные до нищеты фермеры получают надежду на помощь. Разочарование в Веймарской республике также ведет к тому, что высшее дворянство встает на сторону Гитлера. В результате провинция погружается в водоворот террора и войны.
Список серий:
01. Восточный бастион / Bollwerk im Osten
02. Родина и её утрата / Heimat und Verlust

Доп. информация: Перевод Инессы Иванчиковой, текст читает Юрий Большаков
Качество: SATRip
Формат: AVI
Видео кодек: XviD
Аудио кодек: AC3
Видео: 704x400 25fps 1800 kbps
Аудио: AC3 2ch, 48kHz, 192 kbps

Скриншоты


MediaInfo:

Format : AVI
Format/Info : Audio Video Interleave
File size : 611 MiB
Duration : 42mn 49s
Overall bit rate : 1 994 Kbps
Writing application : TMPGEnc Video Mastering Works 5 Version. 5.0.6.38
Writing library : TMPGEnc Video Mastering Works 5 Version. 5.0.6.38
Video
ID : 0
Format : MPEG-4 Visual
Format profile : Advanced Simple@L5
Format settings, BVOP : 2
Format settings, QPel : No
Format settings, GMC : No warppoints
Format settings, Matrix : Default (H.263)
Muxing mode : Packed bitstream
Codec ID : XVID
Codec ID/Hint : XviD
Duration : 42mn 49s
Bit rate : 1 795 Kbps
Width : 704 pixels
Height : 400 pixels
Display aspect ratio : 16:9
Frame rate : 25.000 fps
Color space : YUV
Chroma subsampling : 4:2:0
Bit depth : 8 bits
Scan type : Progressive
Compression mode : Lossy
Bits/(Pixel*Frame) : 0.255
Stream size : 550 MiB (90%)
Writing library : XviD 73
Audio
ID : 1
Format : AC-3
Format/Info : Audio Coding 3
Mode extension : CM (complete main)
Format settings, Endianness : Big
Codec ID : 2000
Duration : 42mn 49s
Bit rate mode : Constant
Bit rate : 192 Kbps
Channel(s) : 2 channels
Channel positions : Front: L R
Sampling rate : 48.0 KHz
Bit depth : 16 bits
Compression mode : Lossy
Stream size : 58.8 MiB (10%)
Alignment : Aligned on interleaves
Interleave, duration : 240 ms (6.00 video frames)
Interleave, preload duration : 224 ms

Внимание:

Раздача ведётся путём добавления новых серий; при каждом добавлении создаётся новый торрент. Чтобы начать докачку новой серии, пользователям необходимо сделать следующее:
- Остановить скачивание.
- Удалить старый торрент у себя из клиента (старые серии удалять не надо).
- Скачать новый торрент и запустить его у себя в клиенте вместо старого, при этом указать клиенту путь в старую папку куда и должно происходить скачивание новых серий.
Добавлено
02. Родина и её утрата / Heimat und Verlust
[Profile] [PM]
Кто просматривает тему:

Forum Topic Author Size
BBC BBC: Viasat History. Бразды правления. Балет на лошади / Lucy Worsley's Reins of Power: The Art of Horse Dancing (Nick Gillam-Smith) [2015 г., Документальный, история, HDTV 720p] skorpionN 3.04 GB
Viasat History Viasat History: BBC: Железные дороги в годы Первой мировой войны / Michael Portillo's Railways of the Great War [серии 1-5 из 5] (Tom Richardson) [2014 г., Документальный, история, HDTVRip 720p] skorpionN 3.72 GB
Viasat History Viasat History: BBC: Отчаянные дегустаторы отправляются / The Supersizers Go... [1 сезон 7 (7) 2 сезон 6 (7)] (Tом Ковени, Нил Фергюсон) [2008-2009 г., Реалити-шоу, SATRip] skorpionN 10.72 GB
Viasat History Viasat History: Американские принцессы на миллион долларов / Million Dollar American Princesses [сезоны 1-2 серии 1-7 из 7] (Ian Lilley) [2015-2016 г., Документальный, игровой, биографи... skorpionN 4.51 GB
Viasat History Viasat History: Ватикан и Третий Рейх / The Vatican and the Third Reich (Rufo Pajares) [2014 г., Документальный, история, SATRip] skorpionN 750 MB
Viasat History Viasat History: Величайшие секреты Библии / Secrets of the Bible [серии 1-13 из 13] (Tim Gaunt) [2015 г., Документально-постановочный, история, SATRip] skorpionN 9.07 GB
Viasat History Viasat History: Викинги / Vikings [серии 1-5 из 5] (Paul Russell and Andrea Vogt) [2014 г., Документально-постановочный, история, исследования, SATRip] skorpionN 3.15 GB
Viasat History Viasat History: Генрих и Анна: Любовники, изменившие историю / Henry and Anne The Lovers Who Changed History [серии 1-2 из 2] [2014 г., Документальный, история, исследования, DVB] skorpionN 1.56 GB
Display posts from previous:    

The time now is: Today 12:02

All times are GMT



You cannot post new topics in this forum
You cannot reply to topics in this forum
You cannot edit your posts in this forum
You cannot delete your posts in this forum
You cannot vote in polls in this forum
You cannot attach files in this forum
You cannot download files in this forum